<?xml version="1.0" standalone="no"?>
<!DOCTYPE svg PUBLIC "-//W3C//DTD SVG 1.1//EN" "http://www.w3.org/Graphics/SVG/1.1/DTD/svg11.dtd" >
<svg xmlns="http://www.w3.org/2000/svg">
<metadata>Generated by IcoMoon</metadata>
<defs>
<font id="lazaicon18" horiz-adv-x="1024">
<font-face units-per-em="1024" ascent="960" descent="-64" />
<missing-glyph horiz-adv-x="1024" />
<glyph unicode="&#x20;" horiz-adv-x="512" d="" />
<glyph unicode="&#xe900;" glyph-name="account" d="M483.556 910.222c-267.060 0-483.556-216.495-483.556-483.556s216.495-483.556 483.556-483.556c267.060 0 483.556 216.495 483.556 483.556v0c-0.324 266.93-216.625 483.232-483.524 483.556h-0.031zM217.884 93.298v0c7.964 18.204 31.289 35.84 88.178 56.889 43.421 13.99 78.438 43.643 99.108 82.146l0.447 0.912c19.651-18.984 46.177-30.963 75.491-31.854l0.171-0.004c29.486 0.895 56.011 12.874 75.695 31.889l-0.033-0.032c21.117-39.415 56.134-69.067 98.348-82.72l1.208-0.338c56.889-21.618 80.213-39.253 88.178-56.889v0c-72.073-58.113-164.765-93.283-265.671-93.283s-193.598 35.169-266.486 93.918l0.815-0.636zM352.711 533.049c-2.987 10.518-4.705 22.598-4.705 35.079 0 29.605 9.664 56.953 26.010 79.061l-0.256-0.362c25.473 22.645 59.217 36.479 96.193 36.479 4.79 0 9.525-0.232 14.196-0.686l-0.593 0.047c3.385 0.281 7.327 0.441 11.307 0.441 38.064 0 72.704-14.66 98.582-38.643l-0.094 0.086c16.090-21.746 25.754-49.094 25.754-78.699 0-12.481-1.718-24.561-4.929-36.016l0.224 0.937-3.413-25.6 25.031-6.258c17.067-3.982 19.911-8.533 15.929-25.031s-17.636-44.942-34.133-47.218h-17.636l-5.689-17.067c-25.6-71.68-65.422-147.911-110.933-147.911s-85.333 76.231-110.933 147.911l-5.689 17.067h-17.636c-16.498 0-29.013 25.031-34.133 47.218s0 21.049 15.929 25.031l25.031 6.258zM791.893 134.827c-28.748 35.27-67.651 61.266-112.231 73.591l-1.547 0.365c-37.227 10.969-66.209 39.015-78.267 74.84l-0.24 0.822c16.782 26.144 31.575 56.204 42.847 87.932l0.958 3.091c33.705 16.272 57.837 47.742 63.635 85.266l0.081 0.637c2.51 6.883 3.962 14.829 3.962 23.114 0 26.686-15.061 49.854-37.146 61.468l-0.38 0.182c1.154 7.628 1.813 16.43 1.813 25.386 0 42.179-14.619 80.943-39.066 111.503l0.275-0.355c-35.256 35.495-84.089 57.466-138.054 57.466-5.271 0-10.493-0.21-15.659-0.621l0.681 0.044c-4.484 0.368-9.706 0.577-14.977 0.577-53.965 0-102.798-21.971-138.043-57.455l-0.011-0.011c-24.010-30.145-38.523-68.783-38.523-110.81 0-8.268 0.562-16.405 1.649-24.374l-0.103 0.927c-22.466-11.796-37.526-34.965-37.526-61.65 0-8.285 1.452-16.231 4.115-23.598l-0.153 0.483c5.878-38.161 30.010-69.631 63.037-85.606l0.679-0.296c12.051-35.663 26.87-66.503 44.881-95.132l-1.077 1.834c-11.287-38.404-40.784-68.089-78.25-79.43l-0.826-0.215c-46.127-12.69-85.030-38.686-113.463-73.557l-0.315-0.399c-73.241 76.477-118.329 180.428-118.329 294.911 0 235.641 191.025 426.667 426.667 426.667s426.667-191.025 426.667-426.667c0-114.482-45.088-218.434-118.476-295.065l0.147 0.154z" />
<glyph unicode="&#xe901;" glyph-name="adobe-flash" d="M793.031 762.88v-122.311c-0.565 0.007-1.232 0.011-1.9 0.011-39.282 0-75.464-13.271-104.307-35.574l0.394 0.293c-28.425-22.359-48.786-53.842-56.698-89.984l-0.191-1.039h107.52v-122.311h-154.169c-20.863-62.133-54.636-115.162-98.358-158.093l-0.059-0.058c-50.245-57.382-122.651-94.287-203.721-97.265l-0.51-0.015v130.844s107.52 4.551 170.667 157.582c56.889 135.964 92.16 249.742 170.667 295.822 48.108 26.52 105.45 42.123 166.435 42.123 1.488 0 2.973-0.009 4.456-0.028l-0.225 0.002zM1024 853.333v-796.444c0-62.838-50.94-113.778-113.778-113.778v0h-796.444c-62.838 0-113.778 50.94-113.778 113.778v0 796.444c0 62.838 50.94 113.778 113.778 113.778v0h796.444c62.838 0 113.778-50.94 113.778-113.778v0zM967.111 853.333c0 31.419-25.47 56.889-56.889 56.889v0h-796.444c-31.419 0-56.889-25.47-56.889-56.889v0-796.444c0-31.419 25.47-56.889 56.889-56.889v0h796.444c31.419 0 56.889 25.47 56.889 56.889v0z" />
<glyph unicode="&#xe902;" glyph-name="airplane" d="M739.556-32.427l-227.556 28.444-227.556-28.444v82.489c0 0.070 0 0.153 0 0.236 0 33.138 19.016 61.835 46.731 75.773l0.487 0.222 66.56 33.564v201.956l-341.333-85.333v121.742c-0.012 0.535-0.019 1.165-0.019 1.797 0 37.148 23.425 68.825 56.31 81.065l0.598 0.195 284.444 118.898v196.267c2.816 51.82 28.343 97.156 66.721 126.562l0.408 0.3 46.649 36.409 46.080-35.84c39.141-29.729 64.911-75.311 67.679-127.003l0.018-0.428v-196.267l284.444-118.898c33.386-11.276 56.995-42.312 56.995-78.863 0-1.476-0.038-2.942-0.114-4.399l0.008 0.204v-124.018l-341.333 85.333v-201.956l66.56-33.564c27.612-13.853 46.41-41.617 47.216-73.849l0.002-0.106zM512 53.475l170.667-21.049v17.636c-0.117 11.136-6.49 20.756-15.766 25.524l-0.163 0.076-97.849 48.924v310.044l341.333-85.333v48.924c0 10.809 0 19.342-23.893 28.444l-317.44 135.396v234.382c-2.647 34.465-20.283 64.338-46.329 83.403l-0.32 0.224-10.24 7.396-10.809-8.533c-25.879-19.149-43.236-48.543-46.052-82.073l-0.028-0.416v-234.382l-17.636-7.396s-274.204-113.778-300.373-125.724-23.324-23.893-23.324-30.72v-51.2l341.333 85.333v-310.044l-97.849-48.924c-9.439-4.844-15.812-14.464-15.929-25.584v-17.652z" />
<glyph unicode="&#xe903;" glyph-name="alarm-clock" d="M483.556 711.111c-172.804 0-312.889-140.085-312.889-312.889s140.085-312.889 312.889-312.889c172.804 0 312.889 140.085 312.889 312.889v0c0 172.804-140.085 312.889-312.889 312.889v0zM789.618 75.093c4.1-4.895 6.589-11.259 6.589-18.205 0-15.626-12.6-28.309-28.194-28.443h-0.013c-0.089-0.001-0.195-0.002-0.3-0.002-8.6 0-16.271 3.976-21.277 10.189l-0.041 0.053-48.924 56.889c-59.344-43.008-133.612-68.796-213.902-68.796s-154.558 25.788-214.972 69.533l1.069-0.737-48.924-56.889c-5.046-6.266-12.718-10.242-21.318-10.242-0.106 0-0.211 0.001-0.316 0.002h0.016c-15.607 0.134-28.207 12.817-28.207 28.443 0 6.946 2.49 13.311 6.626 18.25l-0.036-0.045 48.356 56.889c-69.162 67.266-112.071 161.214-112.071 265.185 0 204.223 165.555 369.778 369.778 369.778s369.778-165.555 369.778-369.778c0-103.971-42.91-197.919-111.986-265.102l-0.085-0.082zM691.2 488.107l-194.56-113.778c-3.797-1.964-8.216-3.367-12.887-3.962l-0.197-0.020c-5.642 0.291-10.884 1.73-15.587 4.085l0.227-0.103-113.778 66.56c-8.59 5.143-14.251 14.399-14.251 24.977 0 5.020 1.275 9.741 3.518 13.86l-0.076-0.152c5.272 8.624 14.636 14.293 25.325 14.293 5.099 0 9.897-1.29 14.084-3.562l-0.156 0.077 98.987-56.889 180.338 104.676c4.067 2.377 8.954 3.78 14.169 3.78 10.391 0 19.48-5.571 24.444-13.89l0.072-0.13c2.648-4.292 4.217-9.495 4.217-15.063 0-10.429-5.503-19.573-13.764-24.687l-0.124-0.072zM102.4 631.467c-13.988 22.706-22.275 50.218-22.275 79.666 0 55.428 29.359 103.999 73.375 131.010l0.669 0.382 79.644 48.356c22.628 14.253 50.143 22.723 79.635 22.756h0.009c0.022 0 0.049 0 0.075 0 55.392 0 103.935-29.321 130.957-73.289l0.381-0.667 10.24-16.498c-23.083-1.323-44.542-4.162-65.468-8.461l2.89 0.496c-17.57 25.214-46.418 41.512-79.073 41.529h-0.003c-18.527-0.146-35.792-5.418-50.485-14.465l0.423 0.242-79.644-46.080c-28.138-17.246-46.627-47.83-46.627-82.732 0-17.475 4.635-33.868 12.743-48.016l-0.249 0.472c-11.749-15.619-23.592-33.45-34.405-51.955l-1.435-2.658zM512 823.182l10.24 16.498c27.124 44.672 75.509 74.060 130.759 74.060 29.734 0 57.48-8.512 80.935-23.232l-0.636 0.372 79.644-48.356c44.685-27.393 74.044-75.964 74.044-131.392 0-29.448-8.287-56.96-22.656-80.332l0.381 0.666-11.378-19.911c-12.099 20.238-23.74 37.318-36.262 53.688l0.991-1.35c7.907 13.562 12.574 29.854 12.574 47.235 0 8.279-1.059 16.311-3.049 23.968l0.146-0.66c-7.093 24.305-22.732 44.198-43.367 56.644l-0.437 0.245-79.644 48.356c-14.27 8.804-31.535 14.077-50.022 14.222h-0.040c-32.658-0.017-61.505-16.315-78.869-41.216l-0.207-0.313c-17.811 4.619-39.3 8.43-61.258 10.654l-1.889 0.155z" />
<glyph unicode="&#xe904;" glyph-name="arrow-down" d="M512 853.333v-679.822l293.547 293.547 39.822-40.391-361.813-361.813-361.813 361.813 39.822 40.391 293.547-293.547v679.822h56.889z" />
<glyph unicode="&#xe905;" glyph-name="arrow-left" d="M910.222 455.111h-679.822l293.547 293.547-40.391 39.822-361.813-361.813 361.813-361.813 40.391 39.822-293.547 293.547h679.822v56.889z" />
<glyph unicode="&#xe906;" glyph-name="arrow-right" d="M113.778 455.111h679.822l-293.547 293.547 40.391 39.822 361.813-361.813-361.813-361.813-40.391 39.822 293.547 293.547h-679.822v56.889z" />
<glyph unicode="&#xe907;" glyph-name="arrow-up" d="M512 56.889v679.822l293.547-293.547 39.822 40.391-361.813 361.813-361.813-361.813 39.822-40.391 293.547 293.547v-679.822h56.889z" />
<glyph unicode="&#xe908;" glyph-name="asterisk" d="M818.062 615.538l-28.444 48.924-277.618-159.858v320.284h-56.889v-320.284l-277.618 159.858-28.444-48.924 277.618-160.427-277.618-160.427 28.444-48.924 277.618 159.858v-320.284h56.889v320.284l277.618-159.858 28.444 48.924-277.618 160.427 277.618 160.427z" />
<glyph unicode="&#xe909;" glyph-name="attachment" d="M810.098 471.609l-341.333-338.489c-30.888-30.817-73.521-49.873-120.604-49.873-94.309 0-170.762 76.453-170.762 170.762 0 47.225 19.171 89.973 50.154 120.886l418.705 418.705c20.601 20.601 49.061 33.343 80.498 33.343 62.873 0 113.841-50.968 113.841-113.841 0-31.436-12.742-59.897-33.343-80.498v0l-415.858-418.702c-10.311-10.393-24.6-16.828-40.391-16.828s-30.080 6.434-40.387 16.824l-0.004 0.004c-10.224 10.283-16.543 24.457-16.543 40.107s6.319 29.824 16.546 40.109l258.273 258.273-40.391 39.822-257.707-257.707c-21.21-20.852-34.353-49.851-34.353-81.92 0-63.431 51.421-114.851 114.851-114.851 31.362 0 59.787 12.57 80.514 32.947l421.531 421.531c30.987 30.916 50.157 73.664 50.157 120.889 0 94.309-76.453 170.762-170.762 170.762-47.084 0-89.717-19.056-120.608-49.876l0.003 0.003-422.116-419.271c-38.665-40.706-62.447-95.871-62.447-156.59 0-125.675 101.88-227.556 227.556-227.556 60.861 0 116.142 23.893 156.973 62.81l-0.091-0.086 341.333 338.489z" />
<glyph unicode="&#xe90a;" glyph-name="audio" d="M284.444 786.773v-563.769c-12.771 3.958-27.452 6.237-42.667 6.237s-29.896-2.28-43.722-6.516l1.056 0.278c-73.876-16.611-130.223-76.021-142.084-150.276l-0.138-1.048c0-63.147 63.716-96.711 142.222-75.662 74.193 16.384 130.758 76.206 142.096 150.882l0.126 1.011v426.667l455.111 122.88v-335.644c-12.772 3.942-27.454 6.213-42.667 6.213s-29.895-2.27-43.727-6.491l1.060 0.278c-74.193-16.384-130.758-76.206-142.096-150.882l-0.126-1.011c0-62.578 63.716-96.711 142.222-75.662 73.572 16.461 129.789 75.357 142.075 149.114l0.148 1.073v655.929zM284.444 147.911c0-32.996-42.667-81.92-100.124-97.28-7.328-2.516-15.771-3.969-24.553-3.969-14.196 0-27.505 3.795-38.969 10.427l0.375-0.2c-4.478 3.436-7.349 8.774-7.396 14.783v0.008c0 32.996 42.667 81.351 100.124 96.711 6.864 1.559 14.746 2.453 22.836 2.453 2.173 0 4.331-0.064 6.472-0.192l-0.295 0.014c0.299 0.004 0.653 0.007 1.007 0.007 7.969 0 15.646-1.251 22.845-3.567l-0.528 0.147 18.204-7.396zM796.444 284.444c0-32.996-42.667-81.351-100.124-96.711-8.043-3.045-17.341-4.808-27.051-4.808-13.187 0-25.614 3.251-36.525 8.996l0.429-0.206c-4.541 3.68-7.42 9.257-7.42 15.506 0 0.349 0.009 0.696 0.027 1.040l-0.002-0.048c0 32.996 42.667 81.92 100.124 97.28 8.61 2.237 18.569 3.671 28.811 3.977l0.202 0.005c0.299 0.004 0.653 0.007 1.007 0.007 7.969 0 15.646-1.251 22.845-3.567l-0.528 0.147 18.204-7.396zM796.444 756.622l-455.111-123.449v109.796l455.111 123.449z" />
<glyph unicode="&#xe90b;" glyph-name="award" d="M739.556 538.169v144.498l113.778 284.444h-682.667l113.778-284.444v-144.498c-69.965-62.773-113.778-153.477-113.778-254.415 0-188.513 152.82-341.333 341.333-341.333s341.333 152.82 341.333 341.333c0 100.938-43.813 191.642-113.459 254.134l-0.319 0.281zM493.796 910.222h275.342l-68.267-170.667h-275.342zM682.667 682.667v-102.969c-48.957 28.75-107.829 45.73-170.667 45.73s-121.71-16.98-172.277-46.602l1.611 0.872v102.969h341.333zM254.862 910.222h176.924l-67.698-170.667h-40.96zM512 0c-157.094 0-284.444 127.35-284.444 284.444s127.35 284.444 284.444 284.444c157.094 0 284.444-127.35 284.444-284.444v0c0-157.094-127.35-284.444-284.444-284.444v0zM512 365.227l16.498-26.169 12.516-19.342 22.187-5.689 30.151-7.964-19.911-23.893-14.791-17.636v-54.044l-29.013 11.947-17.636 8.533-21.049-8.533-29.013-11.947v54.044l-11.378 19.911-19.911 23.893 30.151 7.964 22.187 5.689 12.516 19.342 16.498 23.893zM512 472.747l-64.853-103.538-118.898-27.876 79.076-93.867-9.102-123.449 113.778 46.649 113.778-45.511-8.533 121.742 78.507 94.436-118.898 29.582-64.853 101.831z" />
<glyph unicode="&#xe90c;" glyph-name="barcode" d="M56.889 56.889h-56.889v796.444h56.889zM910.222 853.333h-56.889v-625.778h56.889zM1024 853.333h-56.889v-796.444h56.889zM512 853.333h-56.889v-796.444h56.889zM227.556 853.333h-113.778v-625.778h113.778zM398.222 853.333h-113.778v-625.778h113.778zM796.444 853.333h-113.778v-625.778h113.778zM625.778 853.333h-56.889v-625.778h56.889z" />
<glyph unicode="&#xe90d;" glyph-name="battery" d="M284.444 284.444h-56.889v341.333h56.889zM398.222 625.778h-56.889v-341.333h56.889zM512 625.778h-56.889v-341.333h56.889zM625.778 625.778h-56.889v-341.333h56.889zM739.556 625.778h-56.889v-341.333h56.889zM853.333 625.778h-56.889v-341.333h56.889zM170.667 625.778h-56.889v-341.333h56.889zM1024 512v-113.778c0-31.419-25.47-56.889-56.889-56.889v0-113.778c0-31.419-25.47-56.889-56.889-56.889v0h-853.333c-31.419 0-56.889 25.47-56.889 56.889v0 455.111c0 31.419 25.47 56.889 56.889 56.889v0h853.333c31.419 0 56.889-25.47 56.889-56.889v0-113.778c31.419 0 56.889-25.47 56.889-56.889v0zM910.222 682.667h-853.333v-455.111h853.333z" />
<glyph unicode="&#xe90e;" glyph-name="battery-charge" d="M170.667 284.444h-56.889v341.333h56.889zM284.444 625.778h-56.889v-284.444l56.889 22.756zM608.142 193.422l-167.822-79.644 170.667 406.187-203.093 19.911 120.604 359.538-54.044 17.636-142.791-427.236 196.267-18.204-142.222-341.333-80.213 170.667-51.769-23.893 96.711-205.938 24.462-51.769 257.707 121.173zM0 682.667v-455.111c0-31.419 25.47-56.889 56.889-56.889v0h184.889l-26.738 56.889h-158.151v455.111h279.324l18.773 56.889h-298.098c-31.419 0-56.889-25.47-56.889-56.889v0zM967.111 568.889v113.778c0 31.419-25.47 56.889-56.889 56.889v0h-375.467l-18.773-56.889h394.24v-455.111h-254.862l27.307-56.889h227.556c31.419 0 56.889 25.47 56.889 56.889v0 113.778c31.419 0 56.889 25.47 56.889 56.889v0 113.778c0 31.419-25.47 56.889-56.889 56.889v0z" />
<glyph unicode="&#xe90f;" glyph-name="battery-empty" d="M170.667 284.444h-56.889v341.333h56.889zM1024 512v-113.778c0-31.419-25.47-56.889-56.889-56.889v0-113.778c0-31.419-25.47-56.889-56.889-56.889v0h-853.333c-31.419 0-56.889 25.47-56.889 56.889v0 455.111c0 31.419 25.47 56.889 56.889 56.889v0h853.333c31.419 0 56.889-25.47 56.889-56.889v0-113.778c31.419 0 56.889-25.47 56.889-56.889v0zM910.222 682.667h-853.333v-455.111h853.333z" />
<glyph unicode="&#xe910;" glyph-name="bell" d="M931.271 218.453c-82.324 93.055-133.142 215.652-134.823 350.086l-0.003 0.349c-14.222 218.453-113.778 341.333-284.444 341.333s-270.791-120.604-284.444-341.333c-0.93-135.529-51.655-259.034-134.768-353.301l0.51 0.59c-4.608-5.115-7.426-11.921-7.426-19.385 0-4.095 0.848-7.991 2.378-11.523l-0.072 0.188c5.071-8.894 14.491-14.793 25.289-14.793 0.109 0 0.218 0.001 0.327 0.002h284.427c0-62.838 50.94-113.778 113.778-113.778s113.778 50.94 113.778 113.778v0h284.444c11.588 0.112 21.54 7 26.094 16.886l0.074 0.18c1.458 3.344 2.306 7.241 2.306 11.335 0 7.464-2.818 14.27-7.449 19.411l0.023-0.026zM512 113.778c-31.419 0-56.889 25.47-56.889 56.889v0h113.778c0-31.419-25.47-56.889-56.889-56.889v0zM173.511 227.555c66.793 95.491 107.848 213.327 110.919 340.575l0.014 0.758c12.516 190.009 89.316 284.444 227.556 284.444s215.609-96.142 227.556-284.444c3.988-128.314 46.004-246.078 115.080-343.263l-1.303 1.93z" />
<glyph unicode="&#xe911;" glyph-name="bicycle" d="M768 512c-9.811-0.431-19.012-1.448-28.019-3.031l1.281 0.186-65.422 230.4h92.16c15.709 0 28.444-12.735 28.444-28.444v0c0.001-0.097 0.002-0.211 0.002-0.326 0-7.727-3.278-14.689-8.519-19.57l-0.016-0.015c-5.062-5.217-8.183-12.342-8.183-20.196s3.121-14.979 8.19-20.203l-0.007 0.007c5.238-5.255 12.476-8.513 20.476-8.533h0.004c7.808 0.115 14.837 3.358 19.907 8.529l0.005 0.005c15.461 15.445 25.025 36.791 25.025 60.371 0 45.926-36.28 83.378-81.743 85.259l-0.17 0.006h-133.689c-15.641-0.090-28.285-12.791-28.285-28.444 0-2.631 0.357-5.178 1.025-7.596l-0.047 0.2 38.684-134.827h-332.8l-31.858 113.778h56.889c15.709 0 28.444 12.735 28.444 28.444v0c0 15.709-12.735 28.444-28.444 28.444v0h-170.667c-15.709 0-28.444-12.735-28.444-28.444v0c0-15.709 12.735-28.444 28.444-28.444v0h56.889l69.973-254.862c-28.117 17.042-62.071 27.177-98.382 27.307h-0.036c-109.966 0-199.111-89.145-199.111-199.111s89.145-199.111 199.111-199.111c109.966 0 199.111 89.145 199.111 199.111v0c-0.291 13.087-1.521 25.654-3.628 37.921l0.215-1.512 275.911 200.818 15.929-56.889c-68.043-32.467-114.221-100.714-114.221-179.747 0-109.652 88.89-198.542 198.542-198.542s198.542 88.89 198.542 198.542c0 109.652-88.89 198.542-198.542 198.542-1.044 0-2.087-0.008-3.128-0.024l0.157 0.002zM199.111 170.667c-78.547 0-142.222 63.675-142.222 142.222s63.675 142.222 142.222 142.222c78.547 0 142.222-63.675 142.222-142.222v0c0-78.547-63.675-142.222-142.222-142.222v0zM378.88 408.462l-46.080 160.427h266.809zM768 170.667c-0.38-0.004-0.83-0.006-1.28-0.006-78.233 0-141.653 63.42-141.653 141.653 0 54.829 31.151 102.382 76.72 125.927l0.791 0.372 36.978-133.689c3.352-11.904 14.113-20.483 26.878-20.483 0.151 0 0.302 0.001 0.452 0.004h7.941c11.931 3.561 20.48 14.435 20.48 27.307 0 2.838-0.416 5.579-1.189 8.166l0.052-0.201-36.978 135.396h10.809c78.547 0 142.222-63.675 142.222-142.222s-63.675-142.222-142.222-142.222v0zM199.111 369.778c-31.419 0-56.889-25.47-56.889-56.889s25.47-56.889 56.889-56.889c31.419 0 56.889 25.47 56.889 56.889v0c0 31.419-25.47 56.889-56.889 56.889v0z" />
<glyph unicode="&#xe912;" glyph-name="binary" d="M881.778 910.222h-113.778c-47.128 0-85.333-38.205-85.333-85.333v0-227.556c0-47.128 38.205-85.333 85.333-85.333v0h113.778c47.128 0 85.333 38.205 85.333 85.333v0 227.556c0 47.128-38.205 85.333-85.333 85.333v0zM768 853.333h113.778c8.779-0.138 16.555-4.314 21.571-10.747l0.047-0.062-163.84-184.889v167.253c0 15.709 12.735 28.444 28.444 28.444v0zM881.778 568.889h-113.778c-8.779 0.138-16.555 4.314-21.571 10.747l-0.047 0.062 163.84 184.889v-167.253c0-15.709-12.735-28.444-28.444-28.444v0zM881.778 398.222h-113.778c-47.128 0-85.333-38.205-85.333-85.333v0-227.556c0-47.128 38.205-85.333 85.333-85.333v0h113.778c47.128 0 85.333 38.205 85.333 85.333v0 227.556c0 47.128-38.205 85.333-85.333 85.333v0zM768 341.333h113.778c8.779-0.138 16.555-4.314 21.571-10.747l0.047-0.062-163.84-184.889v167.253c0 15.709 12.735 28.444 28.444 28.444v0zM881.778 56.889h-113.778c-8.779 0.138-16.555 4.314-21.571 10.747l-0.047 0.062 163.84 184.889v-167.253c0-15.709-12.735-28.444-28.444-28.444v0zM512 568.889h113.778v-56.889h-284.444v56.889h113.778v284.444h-113.778v56.889h170.667v-341.333zM170.667 56.889h113.778v-56.889h-284.444v56.889h113.778v284.444h-113.778v56.889h170.667v-341.333zM512 56.889h113.778v-56.889h-284.444v56.889h113.778v284.444h-113.778v56.889h170.667v-341.333zM199.111 910.222h-113.778c-47.128 0-85.333-38.205-85.333-85.333v0-227.556c0-47.128 38.205-85.333 85.333-85.333v0h113.778c47.128 0 85.333 38.205 85.333 85.333v0 227.556c0 47.128-38.205 85.333-85.333 85.333v0zM85.333 853.333h113.778c8.779-0.138 16.555-4.314 21.571-10.747l0.047-0.062-163.84-184.889v167.253c0 15.709 12.735 28.444 28.444 28.444v0zM199.111 568.889h-113.778c-8.779 0.138-16.555 4.314-21.571 10.747l-0.047 0.062 163.84 184.889v-167.253c0-15.709-12.735-28.444-28.444-28.444v0z" />
<glyph unicode="&#xe913;" glyph-name="bluetooth" d="M529.067 455.111l253.724 205.369c6.513 5.257 10.644 13.239 10.644 22.187s-4.131 16.93-10.59 22.144l-0.054 0.042-281.6 227.556c-4.775 3.95-10.961 6.346-17.706 6.346-4.536 0-8.819-1.083-12.604-3.005l0.159 0.073c-9.51-4.736-15.929-14.39-15.929-25.543 0-0.020 0-0.040 0-0.060v0.003-398.222l-235.52 192.853c-5.082 4.805-11.959 7.76-19.525 7.76-15.709 0-28.444-12.735-28.444-28.444 0-9.842 4.999-18.517 12.596-23.624l0.102-0.065 253.724-205.369-253.724-205.369c-5.498-5.198-8.919-12.542-8.919-20.685 0-15.709 12.735-28.444 28.444-28.444 5.867 0 11.319 1.776 15.848 4.82l-0.102-0.065 235.52 190.009v-398.222c0-0.017 0-0.037 0-0.057 0-11.153 6.419-20.807 15.764-25.469l0.165-0.074c3.626-1.849 7.909-2.932 12.445-2.932 6.745 0 12.931 2.396 17.753 6.383l281.553 227.518c6.513 5.257 10.644 13.239 10.644 22.187s-4.131 16.93-10.59 22.144l-0.054 0.042zM512 850.489l207.644-170.667-207.644-167.822zM512 56.889v335.644l207.644-164.978z" />
<glyph unicode="&#xe914;" glyph-name="blur" d="M483.556 768c36.801-55.401 75.935-103.751 119.121-148.141l-0.223 0.23c73.387-80.213 137.102-149.618 137.102-250.311 0-141.385-114.615-256-256-256s-256 114.615-256 256v0c0 100.693 63.716 170.667 137.102 250.311 42.962 44.16 82.097 92.51 116.585 144.225l2.313 3.686zM483.556 910.222c-56.889-227.556-312.889-312.889-312.889-540.444 0-172.804 140.085-312.889 312.889-312.889s312.889 140.085 312.889 312.889v0c0 227.556-256 312.889-312.889 540.444z" />
<glyph unicode="&#xe915;" glyph-name="body-weight" d="M392.533 805.547c-0.603 2.186-0.949 4.696-0.949 7.287 0 13.010 8.735 23.98 20.66 27.366l0.201 0.049c2.219 0.601 4.767 0.946 7.396 0.946 16.232 0 29.39-13.158 29.39-29.39 0-13.603-9.242-25.048-21.789-28.398l-0.205-0.047c-2.037-0.521-4.374-0.82-6.782-0.82-13.786 0-25.281 9.807-27.89 22.825l-0.030 0.182zM967.111 796.444v-682.667c0-62.838-50.94-113.778-113.778-113.778v0h-682.667c-62.838 0-113.778 50.94-113.778 113.778v0 682.667c0 62.838 50.94 113.778 113.778 113.778v0h101.831c69.73 35.874 152.16 56.903 239.502 56.903s169.772-21.029 242.504-58.3l-3.002 1.397h101.831c62.838 0 113.778-50.94 113.778-113.778v0zM512 910.222c-0.169 0-0.369 0-0.569 0-83.109 0-161.298-21.066-229.518-58.148l2.531 1.259v-142.222c0.312-15.582 12.862-28.132 28.415-28.444h170.696v142.222c0 15.709 12.735 28.444 28.444 28.444s28.444-12.735 28.444-28.444v0-142.222h170.667c15.582 0.312 28.132 12.862 28.444 28.415v142.251c-65.69 35.824-143.878 56.889-226.987 56.889-0.2 0-0.4 0-0.601 0h0.032zM910.222 796.444c0 31.419-25.47 56.889-56.889 56.889v0h-56.889v-142.222c0-47.128-38.205-85.333-85.333-85.333v0h-398.222c-47.128 0-85.333 38.205-85.333 85.333v0 142.222h-56.889c-31.419 0-56.889-25.47-56.889-56.889v0-682.667c0-31.419 25.47-56.889 56.889-56.889v0h682.667c31.419 0 56.889 25.47 56.889 56.889v0zM596.764 785.067c2.219-0.601 4.767-0.946 7.396-0.946 16.232 0 29.39 13.158 29.39 29.39 0 13.603-9.242 25.048-21.789 28.398l-0.205 0.047c-2.219 0.601-4.767 0.946-7.396 0.946-16.232 0-29.39-13.158-29.39-29.39 0-13.603 9.242-25.048 21.789-28.398l0.205-0.047zM675.84 752.64c4.067-2.377 8.954-3.78 14.169-3.78 10.391 0 19.48 5.571 24.444 13.89l0.072 0.13c2.387 4.082 3.796 8.988 3.796 14.222 0 15.764-12.779 28.542-28.542 28.542-10.529 0-19.726-5.701-24.674-14.185l-0.073-0.136c-2.29-4.007-3.64-8.807-3.64-13.922 0-10.565 5.759-19.784 14.31-24.69l0.139-0.073zM348.729 752.64c8.449 5.036 14.020 14.125 14.020 24.516 0 5.215-1.403 10.102-3.853 14.304l0.073-0.135c-5.003 8.592-14.17 14.276-24.664 14.276-15.709 0-28.444-12.735-28.444-28.444s12.735-28.444 28.444-28.444c5.319 0 10.297 1.46 14.555 4.001l-0.13-0.072z" />
<glyph unicode="&#xe916;" glyph-name="bold" d="M512 853.333c109.966 0 199.111-89.145 199.111-199.111v0c0-0.031 0-0.068 0-0.105 0-61.967-28.717-117.226-73.569-153.195l-0.386-0.299c91.677-30.773 156.551-115.907 156.551-216.194 0-124.713-100.325-225.994-224.672-227.538l-0.146-0.001h-341.333v796.444h284.444zM284.444 512h227.556c78.547 0 142.222 63.675 142.222 142.222s-63.675 142.222-142.222 142.222v0h-227.556v-284.444zM284.444 113.778h284.444c94.257 0 170.667 76.41 170.667 170.667s-76.41 170.667-170.667 170.667v0h-284.444v-341.333zM512 910.222h-341.333v-910.222h398.222c157.094 0 284.444 127.35 284.444 284.444v0c-0.315 97.070-49.203 182.654-123.621 233.756l-0.966 0.627c24.622 38.247 39.254 84.951 39.254 135.072 0 0.114 0 0.228 0 0.341v-0.017c-0.323 141.255-114.745 255.677-255.969 256h-0.031zM341.333 739.555h170.667c47.128 0 85.333-38.205 85.333-85.333s-38.205-85.333-85.333-85.333v0h-170.667v170.667zM341.333 398.222h227.556c62.838 0 113.778-50.94 113.778-113.778s-50.94-113.778-113.778-113.778v0h-227.556v227.556z" />
<glyph unicode="&#xe917;" glyph-name="book" d="M796.444 739.555v170.667h-568.889c-0.257 0.002-0.561 0.003-0.865 0.003-30.938 0-58.872-12.863-78.745-33.532l-0.034-0.036c-21.046-20.042-34.135-48.275-34.135-79.565 0-0.228 0.001-0.456 0.002-0.683v0.035-682.667c-0.001-0.193-0.002-0.42-0.002-0.648 0-31.29 13.089-59.523 34.090-79.522l0.045-0.043c19.908-20.705 47.841-33.568 78.78-33.568 0.304 0 0.608 0.001 0.911 0.004h682.621v739.556zM170.667 796.444c-0.008 0.34-0.012 0.741-0.012 1.143 0 15.303 6.568 29.073 17.039 38.643l0.040 0.036c9.7 10.513 23.546 17.074 38.925 17.074 0.315 0 0.63-0.003 0.944-0.008l-0.047 0.001h512v-625.778h-512c-21.231-1.453-40.66-8.037-57.41-18.508l0.521 0.304zM227.556 56.889c-0.265-0.004-0.578-0.007-0.892-0.007-15.631 0-29.789 6.304-40.072 16.508l0.004-0.004c-9.861 10.216-15.936 24.142-15.936 39.487 0 0.318 0.003 0.635 0.008 0.952l-0.001-0.048c0.068 15.541 6.356 29.6 16.502 39.826l-0.004-0.004c10.279 10.481 24.567 16.999 40.378 17.067h568.902v512h56.889v-625.778z" />
<glyph unicode="&#xe918;" glyph-name="bookmark" d="M796.444 853.333v-731.022l-280.462 236.089-36.409-30.151-252.018-207.644v732.729h568.889zM853.333 910.222h-682.667v-910.222l345.316 284.444 337.351-284.444v910.222z" />
<glyph unicode="&#xe919;" glyph-name="brightness" d="M833.991 422.684c-7.135-65.503-32.797-123.949-71.565-171.238l0.454 0.571 93.867-93.867-46.080-46.080-93.867 92.16c-46.717-38.314-105.164-63.977-169.22-70.983l-1.447-0.128v-133.12h-66.56v133.12c-65.503 7.135-123.949 32.797-171.238 71.565l0.571-0.454-95.573-93.867-46.080 46.080 93.867 93.867c-38.314 46.717-63.977 105.164-70.983 169.22l-0.128 1.447h-133.12v66.56h133.12c7.135 65.503 32.797 123.949 71.565 171.238l-0.454-0.571-93.867 95.573 46.080 46.080 93.867-93.867c46.717 38.314 105.164 63.977 169.22 70.983l1.447 0.128v133.12h66.56v-133.12c65.503-7.135 123.949-32.797 171.238-71.565l-0.571 0.454 93.867 93.867 46.080-46.080-92.16-93.867c38.314-46.717 63.977-105.164 70.983-169.22l0.128-1.447h133.12v-66.56zM512 711.111c-141.385 0-256-114.615-256-256s114.615-256 256-256c141.385 0 256 114.615 256 256v0c0 0.169 0.001 0.369 0.001 0.57 0 141.071-114.36 255.431-255.431 255.431-0.2 0-0.4 0-0.6-0.001h0.031z" />
<glyph unicode="&#xe91a;" glyph-name="broadcast" d="M568.889 455.111c0-31.419-25.47-56.889-56.889-56.889s-56.889 25.47-56.889 56.889c0 31.419 25.47 56.889 56.889 56.889v0c31.419 0 56.889-25.47 56.889-56.889v0zM654.222 455.111c-0.061-39.28-15.91-74.847-41.539-100.704l0.010 0.010 39.822-39.822c36.142 35.878 58.514 85.584 58.514 140.516s-22.372 104.638-58.502 140.504l-0.012 0.012-39.822-39.822c25.619-25.846 41.468-61.413 41.529-100.682v-0.012zM938.667 455.111c0-0.099 0-0.216 0-0.333 0-117.691-47.843-224.208-125.14-301.163l-0.015-0.015 39.822-39.822c87.153 87.447 141.039 208.097 141.039 341.333s-53.885 253.886-141.052 341.346l0.013-0.013-40.391-40.391c77.467-76.842 125.495-183.261 125.724-300.899v-0.044zM210.489 756.622l-39.822 39.822c-87.153-87.447-141.039-208.097-141.039-341.333s53.885-253.886 141.052-341.346l-0.013 0.013 40.391 40.391c-77.374 77.066-125.253 183.697-125.253 301.511s47.878 224.444 125.238 301.497l0.014 0.014zM369.778 455.111c0.061 39.28 15.91 74.847 41.539 100.704l-0.010-0.010-39.822 39.822c-36.142-35.878-58.514-85.584-58.514-140.516s22.372-104.638 58.502-140.504l0.012-0.012 39.822 39.822c-25.619 25.846-41.468 61.413-41.529 100.682v0.012zM270.791 213.902l40.391 40.391c-51.287 51.443-82.998 122.427-82.998 200.818s31.711 149.375 83.005 200.825l-0.007-0.007-40.391 40.391c-61.68-61.754-99.824-147.027-99.824-241.209s38.145-179.455 99.828-241.212l-0.004 0.004zM753.209 696.32l-40.391-40.391c51.287-51.443 82.998-122.427 82.998-200.818s-31.711-149.375-83.005-200.825l0.007 0.007 40.391-40.391c61.68 61.754 99.824 147.027 99.824 241.209s-38.145 179.455-99.828 241.212l0.004-0.004z" />
<glyph unicode="&#xe91b;" glyph-name="bug" d="M910.222 341.333v56.889h-113.778c-1.685 55.67-13.020 108.22-32.38 156.696l1.091-3.096 102.969 56.889-28.444 48.356-100.124-54.613c-22.573 40.214-51.274 74.177-85.267 101.898l-0.636 0.502c17.905 15.722 29.146 38.661 29.146 64.225 0 42.354-30.857 77.502-71.317 84.188l-0.496 0.068c-11.944 13.223-25.835 24.395-41.28 33.139l-0.818 0.426 7.396 73.956-58.596 6.258-5.689-59.733c-8.287 1.456-18.088 2.476-28.059 2.833l-0.385 0.011c-10.356-0.368-20.158-1.388-29.748-3.029l1.303 0.184-5.689 59.733-56.889-5.689 5.689-74.524c-16.263-9.17-30.153-20.341-41.97-33.421l-0.128-0.144c-40.9-6.804-71.697-41.924-71.697-84.237 0-24.973 10.727-47.44 27.826-63.046l0.067-0.060c-33.901-26.855-62.158-59.1-83.884-95.679l-0.88-1.601-85.902 50.631-27.876-48.356 91.591-52.907c-20.241-47.083-32.82-101.755-34.684-159.136l-0.019-0.721h-113.778v-56.889h113.778c4.881-56.707 19.894-108.853 43.236-156.152l-1.139 2.552-98.987-59.164 27.876-48.356 100.693 56.889c51.613-80.887 139.879-134.419 240.82-137.094l0.389-0.008c103.937 3.626 193.867 60.336 243.876 143.725l0.746 1.342 110.933-64.853 28.444 48.356-113.778 65.422c21.767 42.834 36.894 92.725 42.504 145.459l0.162 1.883zM597.333 796.444c15.709 0 28.444-12.735 28.444-28.444s-12.735-28.444-28.444-28.444c-15.709 0-28.444 12.735-28.444 28.444v0c0 15.709 12.735 28.444 28.444 28.444v0zM369.778 796.444c15.709 0 28.444-12.735 28.444-28.444s-12.735-28.444-28.444-28.444c-15.709 0-28.444 12.735-28.444 28.444v0c0 15.709 12.735 28.444 28.444 28.444v0zM455.111 95.004c-0.007-15.704-12.739-28.432-28.444-28.432-3.469 0-6.794 0.621-9.868 1.758l0.197-0.064c-108.658 37.547-189.44 164.409-189.44 315.733-0.143 3.727-0.224 8.104-0.224 12.5 0 112.658 53.508 212.819 136.497 276.453l0.83 0.611c9.521 5.72 21.010 9.103 33.289 9.103 0.097 0 0.193 0 0.29-0.001h56.874zM449.991 739.555c3.025 8.444 4.882 18.189 5.118 28.335l0.002 0.109c-0.179 27.198-12.97 51.371-32.812 66.989l-0.184 0.139c17.37 11.297 38.62 18.015 61.44 18.015s44.070-6.718 61.882-18.284l-0.442 0.269c-20.025-15.758-32.816-39.931-32.995-67.099v-0.030c0.238-10.255 2.095-20.001 5.322-29.097l-0.202 0.652zM549.547 68.267c-2.715-0.948-5.845-1.496-9.103-1.496-15.635 0-28.324 12.615-28.444 28.222v587.673h56.889c12.369-0.81 23.801-4.083 34.056-9.331l-0.491 0.228c83.819-64.246 137.327-164.407 137.327-277.064 0-4.396-0.081-8.773-0.243-13.13l0.019 0.63c0-151.324-80.782-278.756-190.009-315.733z" />
<glyph unicode="&#xe91c;" glyph-name="bus" d="M341.333 853.333h284.444v-56.889h-284.444v56.889zM910.222 739.555v113.778c0 62.838-50.94 113.778-113.778 113.778v0h-625.778c-62.838 0-113.778-50.94-113.778-113.778v0-113.778c-31.419 0-56.889-25.47-56.889-56.889v0-113.778c0-31.419 25.47-56.889 56.889-56.889v0-341.333c0-31.419 25.47-56.889 56.889-56.889v0-28.444c0-47.128 38.205-85.333 85.333-85.333s85.333 38.205 85.333 85.333v0 28.444h398.222v-28.444c0-47.128 38.205-85.333 85.333-85.333s85.333 38.205 85.333 85.333v0 28.444c31.419 0 56.889 25.47 56.889 56.889v0 341.333c31.419 0 56.889 25.47 56.889 56.889v0 113.778c0 31.419-25.47 56.889-56.889 56.889v0zM113.778 853.333c0 31.419 25.47 56.889 56.889 56.889v0h625.778c31.419 0 56.889-25.47 56.889-56.889v0-113.778h-739.556zM853.333 682.667v-291.84c-110.86-31.335-238.189-49.396-369.721-49.493h-0.057c-131.589 0.098-258.918 18.159-379.723 51.862l9.945-2.369v291.84zM227.556 85.333c0-15.709-12.735-28.444-28.444-28.444s-28.444 12.735-28.444 28.444v0 28.444h56.889zM113.778 170.667v160.996c46.068-12.618 103.864-24.354 162.764-32.652l7.902-0.913v-127.431zM341.333 170.667v120.604c43.804-3.982 91.591-6.827 142.222-6.827s98.418 2.844 142.222 6.827v-120.604zM796.444 85.333c0-15.709-12.735-28.444-28.444-28.444s-28.444 12.735-28.444 28.444v0 28.444h56.889zM682.667 170.667v127.431c66.802 9.211 124.598 20.947 181.081 35.91l-10.414-2.346v-160.996z" />
<glyph unicode="&#xe91d;" glyph-name="button" d="M933.547 762.88l-113.778 113.778c-20.503 20.622-48.85 33.428-80.187 33.564h-568.915c-62.838 0-113.778-50.94-113.778-113.778v0-568.889c0.117-30.239 12.013-57.677 31.334-77.985l-0.045 0.048 113.778-113.778c20.713-21.991 49.986-35.721 82.467-35.84h568.911c62.838 0 113.778 50.94 113.778 113.778v0 568.889c-0.136 31.364-12.942 59.71-33.559 80.208l-0.005 0.005zM113.778 796.444c0 31.419 25.47 56.889 56.889 56.889v0h568.889c31.419 0 56.889-25.47 56.889-56.889v0-568.889c0-31.419-25.47-56.889-56.889-56.889v0h-568.889c-31.419 0-56.889 25.47-56.889 56.889v0zM910.222 113.778c0-31.419-25.47-56.889-56.889-56.889v0h-568.889c-15.541 0.068-29.6 6.356-39.826 16.502l0.004-0.004-40.96 40.391h535.893c62.838 0 113.778 50.94 113.778 113.778v0 535.324l26.738-26.169 13.653-13.653c10.197-10.278 16.499-24.434 16.499-40.062 0-0.116 0-0.231-0.001-0.347v0.018z" />
<glyph unicode="&#xe91e;" glyph-name="button-clicked" d="M482.418 203.662l-81.351 170.667-113.778-56.889v507.449l393.102-318.578-113.778-56.889 83.058-170.667zM425.529 450.56l81.351-170.667 62.009 29.013-83.627 170.667 85.902 41.529-229.831 184.32v-296.391zM931.271 762.88l-113.778 113.778c-19.976 20.109-47.404 32.793-77.794 33.562l-0.144 0.003h-568.889c-62.838 0-113.778-50.94-113.778-113.778v0-568.889c0.117-30.239 12.013-57.677 31.334-77.985l-0.045 0.048 113.778-113.778c20.713-21.991 49.986-35.721 82.467-35.84h568.911c62.838 0 113.778 50.94 113.778 113.778v0 568.889c-0.136 31.364-12.942 59.71-33.559 80.208l-0.005 0.005zM113.778 796.444c0 31.419 25.47 56.889 56.889 56.889v0h568.889c31.419 0 56.889-25.47 56.889-56.889v0-568.889c0-31.419-25.47-56.889-56.889-56.889v0h-568.889c-31.419 0-56.889 25.47-56.889 56.889v0zM910.222 113.778c0-31.419-25.47-56.889-56.889-56.889v0h-568.889c-15.541 0.068-29.6 6.356-39.826 16.502l0.004-0.004-40.96 40.391h535.893c62.838 0 113.778 50.94 113.778 113.778v0 535.324l26.738-26.169 13.653-13.653c10.197-10.278 16.499-24.434 16.499-40.062 0-0.116 0-0.231-0.001-0.347v0.018z" />
<glyph unicode="&#xe91f;" glyph-name="cabinet" d="M967.111 0h-910.222v910.222h910.222zM910.222 284.444h-796.444v-227.556h796.444zM910.222 568.889h-796.444v-227.556h796.444zM910.222 853.333h-796.444v-227.556h796.444zM625.778 796.444h-227.556v-56.889h227.556zM625.778 512h-227.556v-56.889h227.556zM625.778 227.555h-227.556v-56.889h227.556z" />
<glyph unicode="&#xe920;" glyph-name="calculator" d="M0 910.222v-967.111h967.111v967.111zM56.889 512h227.556v-227.556h-227.556zM568.889 284.444h-227.556v227.556h227.556zM56.889 0v227.556h227.556v-227.556zM341.333 0v227.556h227.556v-227.556zM910.222 0h-284.444v512h284.444zM910.222 568.889h-853.333v284.444h853.333zM853.333 284.444h-170.667v56.889h170.667zM853.333 170.667h-170.667v56.889h170.667zM853.333 796.444h-56.889v-170.667h56.889z" />
<glyph unicode="&#xe921;" glyph-name="calendar" d="M796.444 853.333v56.889h-170.667v-56.889h-227.556v56.889h-170.667v-56.889h-170.667v-853.333h910.222v853.333zM910.222 56.889h-796.444v568.889h796.444zM910.222 682.667h-796.444v113.778h113.778v-56.889h170.667v56.889h227.556v-56.889h170.667v56.889h113.778zM341.333 796.444h-56.889v56.889h56.889zM739.556 796.444h-56.889v56.889h56.889zM284.444 455.111h-56.889v56.889h56.889zM455.111 455.111h-56.889v56.889h56.889zM625.778 455.111h-56.889v56.889h56.889zM796.444 455.111h-56.889v56.889h56.889zM284.444 284.444h-56.889v56.889h56.889zM455.111 284.444h-56.889v56.889h56.889zM625.778 284.444h-56.889v56.889h56.889zM796.444 284.444h-56.889v56.889h56.889zM284.444 113.778h-56.889v56.889h56.889zM455.111 113.778h-56.889v56.889h56.889zM625.778 113.778h-56.889v56.889h56.889z" />
<glyph unicode="&#xe922;" glyph-name="camera" d="M512 156.444c-133.53 0-241.778 108.248-241.778 241.778s108.248 241.778 241.778 241.778c133.53 0 241.778-108.248 241.778-241.778v0c-0.323-133.4-108.377-241.455-241.747-241.778h-0.031zM512 583.111c-102.111 0-184.889-82.778-184.889-184.889s82.778-184.889 184.889-184.889c102.111 0 184.889 82.778 184.889 184.889v0c-0.322 101.981-82.907 184.566-184.858 184.889h-0.031zM881.778 56.889h-739.556c-47.128 0-85.333 38.205-85.333 85.333v0 455.111c0 47.128 38.205 85.333 85.333 85.333v0h113.778l20.48 101.831c8.146 39.175 42.124 68.278 82.998 68.835l0.060 0.001h304.924c41.169-0.279 75.439-29.475 83.529-68.278l0.097-0.558 20.48-101.831h113.778c46.883-0.323 84.764-38.403 84.764-85.331 0-0.001 0-0.001 0-0.002v0-455.111c0-47.128-38.205-85.333-85.333-85.333v0zM142.222 625.778c-15.709 0-28.444-12.735-28.444-28.444v0-455.111c0-15.709 12.735-28.444 28.444-28.444v0h739.556c15.709 0 28.444 12.735 28.444 28.444v0 455.111c0 15.709-12.735 28.444-28.444 28.444v0h-159.858l-29.582 147.911c-2.739 13.076-14.174 22.756-27.87 22.756-0.002 0-0.004 0-0.006 0h-304.924c-13.856-0.052-25.373-10.004-27.848-23.148l-0.028-0.177-29.582-147.342z" />
<glyph unicode="&#xe923;" glyph-name="camera-date" d="M910.222 568.889h-132.551l-25.031 74.524c-7.638 23.015-28.969 39.321-54.108 39.321-0.978 0-1.95-0.025-2.916-0.073l0.136 0.005h-126.862c-0.033 157.069-127.371 284.386-284.444 284.386-157.094 0-284.444-127.35-284.444-284.444 0-136.957 96.793-251.306 225.703-278.372l1.852-0.325v-290.133c0-31.419 25.47-56.889 56.889-56.889v0h625.778c31.419 0 56.889 25.47 56.889 56.889v0 398.222c0 31.419-25.47 56.889-56.889 56.889v0zM56.889 682.667c0 125.675 101.88 227.556 227.556 227.556s227.556-101.88 227.556-227.556c0-125.675-101.88-227.556-227.556-227.556v0c-125.675 0-227.556 101.88-227.556 227.556v0zM910.222 113.778h-625.778v284.444c0.017 0 0.038 0 0.058 0 136.957 0 251.306 96.793 278.372 225.703l0.325 1.852h135.396l25.031-75.093 15.929-38.684h170.667zM597.333 426.667c62.838 0 113.778-50.94 113.778-113.778s-50.94-113.778-113.778-113.778c-62.838 0-113.778 50.94-113.778 113.778v0c0 62.838 50.94 113.778 113.778 113.778v0zM597.333 483.555c-94.257 0-170.667-76.41-170.667-170.667s76.41-170.667 170.667-170.667c94.257 0 170.667 76.41 170.667 170.667v0c0 94.257-76.41 170.667-170.667 170.667v0zM416.996 788.48l-132.551-76.8-85.333 48.356-28.444-48.924 113.778-65.422 160.996 93.867z" />
<glyph unicode="&#xe924;" glyph-name="caption" d="M56.889 910.222v-910.222h910.222v910.222zM910.222 56.889h-796.444v796.444h796.444zM739.556 341.333h-455.111v56.889h455.111zM682.667 170.667h-341.333v56.889h341.333z" />
<glyph unicode="&#xe925;" glyph-name="car" d="M967.111 426.667c0.004 0.392 0.006 0.856 0.006 1.321 0 71.728-53.098 131.053-122.132 140.814l-0.754 0.087-33.564 202.524c-13.65 48.634-57.595 83.699-109.73 83.699-1.424 0-2.841-0.026-4.252-0.078l0.204 0.006h-427.236c-1.207 0.046-2.624 0.072-4.048 0.072-52.135 0-96.080-35.065-109.537-82.898l-0.193-0.801-32.996-202.524c-70.578-8.774-124.66-68.387-124.66-140.63 0-47.060 22.949-88.76 58.265-114.52l0.403-0.28v-170.667c0-47.128 38.205-85.333 85.333-85.333s85.333 38.205 85.333 85.333v0 27.876h512v-28.444c0-47.128 38.205-85.333 85.333-85.333s85.333 38.205 85.333 85.333v0 170.667c34.698 26.222 56.889 67.409 56.889 113.778v0zM212.764 760.035c8.423 21.548 29.023 36.534 53.123 36.534 1.325 0 2.64-0.045 3.942-0.134l-0.176 0.010h427.804c1.127 0.079 2.441 0.125 3.766 0.125 24.1 0 44.7-14.986 52.989-36.147l0.133-0.387 31.858-191.147h-605.298zM711.68 512c-18.107-23.352-29.026-53.067-29.026-85.333s10.92-61.982 29.265-85.653l-0.238 0.32h-455.111c18.107 23.352 29.026 53.067 29.026 85.333s-10.92 61.982-29.265 85.653l0.238-0.32zM142.222 512c47.128 0 85.333-38.205 85.333-85.333s-38.205-85.333-85.333-85.333c-47.128 0-85.333 38.205-85.333 85.333v0c0 47.128 38.205 85.333 85.333 85.333v0zM170.667 142.222c0-15.709-12.735-28.444-28.444-28.444s-28.444 12.735-28.444 28.444v0 28.444h56.889zM853.333 142.222c0-15.709-12.735-28.444-28.444-28.444s-28.444 12.735-28.444 28.444v0 28.444h56.889zM853.333 227.555h-739.556v56.889c8.515-1.734 18.335-2.766 28.382-2.844h682.73c10.109 0.078 19.929 1.11 29.435 3.010l-0.991-0.165zM824.889 341.333c-47.128 0-85.333 38.205-85.333 85.333s38.205 85.333 85.333 85.333c47.128 0 85.333-38.205 85.333-85.333v0c0-47.128-38.205-85.333-85.333-85.333v0z" />
<glyph unicode="&#xe926;" glyph-name="caret-down" d="M242.347 527.36l39.822 39.822 201.387-200.818 201.387 200.818 39.822-39.822-241.209-241.209-241.209 241.209z" />
<glyph unicode="&#xe927;" glyph-name="caret-large-down" d="M512 208.213v0l-455.111 455.111 38.684 38.684 416.427-417.564 416.427 416.427 38.684-38.684-455.111-455.111z" />
<glyph unicode="&#xe928;" glyph-name="caret-large-left" d="M265.102 455.111v0l455.111 455.111 38.684-38.684-417.564-416.427 416.427-416.427-38.684-38.684-455.111 455.111z" />
<glyph unicode="&#xe929;" glyph-name="caret-large-right" d="M758.898 455.111l-455.111-455.111-38.684 38.684 417.564 416.427-417.564 416.427 38.684 38.684 455.111-455.111z" />
<glyph unicode="&#xe92a;" glyph-name="caret-large-up" d="M512 702.009l455.111-455.111-38.684-38.684-416.427 417.564-416.427-417.564-38.684 38.684 455.111 455.111z" />
<glyph unicode="&#xe92b;" glyph-name="caret-left" d="M584.249 667.875l39.822-39.822-200.818-201.387 200.818-201.387-39.822-39.822-241.209 241.209 241.209 241.209z" />
<glyph unicode="&#xe92c;" glyph-name="caret-right" d="M439.751 667.875l-39.822-39.822 200.818-201.387-200.818-201.387 39.822-39.822 241.209 241.209-241.209 241.209z" />
<glyph unicode="&#xe92d;" glyph-name="caret-up" d="M242.347 382.862l39.822-39.822 201.387 200.818 201.387-200.818 39.822 39.822-241.209 241.209-241.209-241.209z" />
<glyph unicode="&#xe92e;" glyph-name="cart-fotomoto" d="M967.111 967.111h-398.222c-31.419 0-56.889-25.47-56.889-56.889v0-284.444h-296.96l-44.373 170.667h-170.667v-56.889h128l113.778-455.111 29.013-113.778c-56.195-7.53-99.079-55.169-99.079-112.824 0-62.838 50.94-113.778 113.778-113.778s113.778 50.94 113.778 113.778c0 20.56-5.453 39.846-14.992 56.491l0.293-0.556h202.524c-9.569-16.31-15.221-35.92-15.221-56.85 0-62.838 50.94-113.778 113.778-113.778s113.778 50.94 113.778 113.778c0 62.838-50.94 113.778-113.778 113.778-1.049 0-2.095-0.014-3.137-0.042l0.154 0.003h-353.849l-28.444 113.778h467.627l42.667 170.667h156.444c31.419 0 56.889 25.47 56.889 56.889v0 398.222c0 31.419-25.47 56.889-56.889 56.889v0zM682.667 113.778c31.419 0 56.889-25.47 56.889-56.889s-25.47-56.889-56.889-56.889c-31.419 0-56.889 25.47-56.889 56.889v0c0 31.419 25.47 56.889 56.889 56.889v0zM341.333 56.889c0-31.419-25.47-56.889-56.889-56.889s-56.889 25.47-56.889 56.889c0 31.419 25.47 56.889 56.889 56.889v0c31.419 0 56.889-25.47 56.889-56.889v0zM723.627 341.333h-439.182l-56.889 227.556h284.444v-56.889c0-31.419 25.47-56.889 56.889-56.889v0h183.182zM880.071 568.889c-15.526 0.628-27.876 13.368-27.876 28.991 0 16.024 12.99 29.013 29.013 29.013 16.016 0 29.001-12.977 29.013-28.99v-0.001c0-0.007 0-0.014 0-0.022 0-16.024-12.99-29.013-29.013-29.013-0.4 0-0.798 0.008-1.195 0.024l0.057-0.002zM880.071 796.444h-197.404v-56.889h170.667c15.709 0 28.444-12.735 28.444-28.444v0c0-15.709-12.735-28.444-28.444-28.444v0h-170.667v-85.333c0-15.709-12.735-28.444-28.444-28.444s-28.444 12.735-28.444 28.444v0 227.556c0 15.709 12.735 28.444 28.444 28.444v0h227.556c15.709 0 28.444-12.735 28.444-28.444v0c0-15.709-12.735-28.444-28.444-28.444v0z" />
<glyph unicode="&#xe92f;" glyph-name="chart" d="M56.889 56.889h227.556v455.111h-227.556zM113.778 455.111h113.778v-341.333h-113.778zM398.222 56.889h227.556v512h-227.556zM455.111 512h113.778v-398.222h-113.778zM739.556 739.555v-682.667h227.556v682.667zM910.222 113.778h-113.778v568.889h113.778z" />
<glyph unicode="&#xe930;" glyph-name="chat" d="M398.222 910.222v-227.556h-341.333v-512h113.778v-170.667l170.667 170.667h341.333v284.444l170.667-170.667v170.667h113.778v455.111zM625.778 227.555h-307.769l-90.453-90.453v90.453h-113.778v398.222h512zM910.222 512h-113.778v-90.453l-90.453 90.453h-23.324v170.667h-227.556v170.667h455.111z" />
<glyph unicode="&#xe931;" glyph-name="numpad" d="M483.556 56.889c15.709 0 28.444-12.735 28.444-28.444s-12.735-28.444-28.444-28.444c-15.709 0-28.444 12.735-28.444 28.444v0c0 15.709 12.735 28.444 28.444 28.444v0zM483.556 113.778c-47.128 0-85.333-38.205-85.333-85.333s38.205-85.333 85.333-85.333c47.128 0 85.333 38.205 85.333 85.333v0c0 47.128-38.205 85.333-85.333 85.333v0zM483.556 341.333c15.709 0 28.444-12.735 28.444-28.444s-12.735-28.444-28.444-28.444c-15.709 0-28.444 12.735-28.444 28.444v0c0 15.709 12.735 28.444 28.444 28.444v0zM483.556 398.222c-47.128 0-85.333-38.205-85.333-85.333s38.205-85.333 85.333-85.333c47.128 0 85.333 38.205 85.333 85.333v0c0 47.128-38.205 85.333-85.333 85.333v0zM483.556 625.778c15.709 0 28.444-12.735 28.444-28.444s-12.735-28.444-28.444-28.444c-15.709 0-28.444 12.735-28.444 28.444v0c0 15.709 12.735 28.444 28.444 28.444v0zM483.556 682.667c-47.128 0-85.333-38.205-85.333-85.333s38.205-85.333 85.333-85.333c47.128 0 85.333 38.205 85.333 85.333v0c0 47.128-38.205 85.333-85.333 85.333v0zM483.556 910.222c15.709 0 28.444-12.735 28.444-28.444s-12.735-28.444-28.444-28.444c-15.709 0-28.444 12.735-28.444 28.444v0c0 15.709 12.735 28.444 28.444 28.444v0zM483.556 967.111c-47.128 0-85.333-38.205-85.333-85.333s38.205-85.333 85.333-85.333c47.128 0 85.333 38.205 85.333 85.333v0c0 47.128-38.205 85.333-85.333 85.333v0zM768 341.333c15.709 0 28.444-12.735 28.444-28.444s-12.735-28.444-28.444-28.444c-15.709 0-28.444 12.735-28.444 28.444v0c0 15.709 12.735 28.444 28.444 28.444v0zM768 398.222c-47.128 0-85.333-38.205-85.333-85.333s38.205-85.333 85.333-85.333c47.128 0 85.333 38.205 85.333 85.333v0c0 47.128-38.205 85.333-85.333 85.333v0zM768 625.778c15.709 0 28.444-12.735 28.444-28.444s-12.735-28.444-28.444-28.444c-15.709 0-28.444 12.735-28.444 28.444v0c0 15.709 12.735 28.444 28.444 28.444v0zM768 682.667c-47.128 0-85.333-38.205-85.333-85.333s38.205-85.333 85.333-85.333c47.128 0 85.333 38.205 85.333 85.333v0c0 47.128-38.205 85.333-85.333 85.333v0zM768 910.222c15.709 0 28.444-12.735 28.444-28.444s-12.735-28.444-28.444-28.444c-15.709 0-28.444 12.735-28.444 28.444v0c0 15.709 12.735 28.444 28.444 28.444v0zM768 967.111c-47.128 0-85.333-38.205-85.333-85.333s38.205-85.333 85.333-85.333c47.128 0 85.333 38.205 85.333 85.333v0c0 47.128-38.205 85.333-85.333 85.333v0zM199.111 341.333c15.709 0 28.444-12.735 28.444-28.444s-12.735-28.444-28.444-28.444c-15.709 0-28.444 12.735-28.444 28.444v0c0 15.709 12.735 28.444 28.444 28.444v0zM199.111 398.222c-47.128 0-85.333-38.205-85.333-85.333s38.205-85.333 85.333-85.333c47.128 0 85.333 38.205 85.333 85.333v0c0 47.128-38.205 85.333-85.333 85.333v0zM199.111 625.778c15.709 0 28.444-12.735 28.444-28.444s-12.735-28.444-28.444-28.444c-15.709 0-28.444 12.735-28.444 28.444v0c0 15.709 12.735 28.444 28.444 28.444v0zM199.111 682.667c-47.128 0-85.333-38.205-85.333-85.333s38.205-85.333 85.333-85.333c47.128 0 85.333 38.205 85.333 85.333v0c0 47.128-38.205 85.333-85.333 85.333v0zM199.111 910.222c15.709 0 28.444-12.735 28.444-28.444s-12.735-28.444-28.444-28.444c-15.709 0-28.444 12.735-28.444 28.444v0c0 15.709 12.735 28.444 28.444 28.444v0zM199.111 967.111c-47.128 0-85.333-38.205-85.333-85.333s38.205-85.333 85.333-85.333c47.128 0 85.333 38.205 85.333 85.333v0c0 47.128-38.205 85.333-85.333 85.333v0z" />
<glyph unicode="&#xe932;" glyph-name="checkbox-checked" d="M967.111 910.222v-910.222h-910.222v910.222h580.267l-23.893-56.889h-499.484v-796.444h796.444v796.444h-50.631l23.893 56.889zM747.52 954.595l-239.502-577.991-262.827 108.658-21.618-52.907 315.733-130.276 21.618 52.338 239.502 578.56z" />
<glyph unicode="&#xe933;" glyph-name="checkmark" d="M781.084 765.155l49.493-28.444-284.444-492.658-56.889-98.987-98.418 56.889-197.404 113.778 28.444 49.493 246.329-142.222 28.444 49.493 284.444 492.658zM760.604 842.524l-312.889-541.582-246.329 142.222-87.609-147.911 246.329-142.222 151.893-85.333 85.333 147.911 312.889 541.582-147.342 85.333z" />
<glyph unicode="&#xe934;" glyph-name="child" d="M723.058 853.333h-40.391v40.391c0 15.709-12.735 28.444-28.444 28.444v0c-15.582-0.312-28.132-12.862-28.444-28.415v-40.42c-23.352 18.107-53.067 29.026-85.333 29.026s-61.982-10.92-85.653-29.265l0.32 0.238v40.391c-0.312 15.582-12.862 28.132-28.415 28.444h-0.029c-15.709 0-28.444-12.735-28.444-28.444v0-40.391h-40.391c-15.709 0-28.444-12.735-28.444-28.444v0c0.312-15.582 12.862-28.132 28.415-28.444h52.367c-7.434-16.758-11.818-36.295-11.946-56.841v-0.048c0-78.547 63.675-142.222 142.222-142.222s142.222 63.675 142.222 142.222v0c-0.129 20.594-4.512 40.13-12.313 57.821l0.367-0.932h52.338c15.582 0.312 28.132 12.862 28.444 28.415v0.029c0 15.709-12.735 28.444-28.444 28.444v0zM540.444 654.222c-47.128 0-85.333 38.205-85.333 85.333v0l85.333 85.333 85.333-85.333c0-47.128-38.205-85.333-85.333-85.333v0zM682.667 568.889h-40.96c-28.842-17.85-63.817-28.429-101.262-28.429s-72.421 10.579-102.099 28.91l0.837-0.481h-40.96c-62.838 0-113.778-50.94-113.778-113.778v0-170.667h113.778v-284.444h284.444v284.444h113.778v170.667c0 62.838-50.94 113.778-113.778 113.778v0zM398.222 341.333h-56.889v113.778c0 31.419 25.47 56.889 56.889 56.889v0zM625.778 56.889h-170.667v442.596c25.31-10.077 54.639-15.92 85.333-15.92s60.024 5.843 86.937 16.479l-1.603-0.559zM739.556 341.333h-56.889v170.667c31.419 0 56.889-25.47 56.889-56.889v0z" />
<glyph unicode="&#xe935;" glyph-name="close" d="M810.098 793.6l-298.098-298.098-298.098 298.098-40.391-40.391 298.098-298.098-298.098-298.098 40.391-40.391 298.098 298.098 298.098-298.098 40.391 40.391-298.098 298.098 298.098 298.098-40.391 40.391z" />
<glyph unicode="&#xe936;" glyph-name="close-circle" d="M910.222 426.667c0-235.641-191.025-426.667-426.667-426.667s-426.667 191.025-426.667 426.667c0 235.641 191.025 426.667 426.667 426.667v0c235.641 0 426.667-191.025 426.667-426.667v0zM483.556 796.444c-204.223 0-369.778-165.555-369.778-369.778s165.555-369.778 369.778-369.778c204.223 0 369.778 165.555 369.778 369.778v0c0 204.223-165.555 369.778-369.778 369.778v0zM644.551 625.778l-160.996-158.72-160.996 158.72-38.116-38.116 158.72-160.996-158.72-160.996 40.391-40.391 158.72 160.996 160.996-158.72 40.391 40.391-160.996 158.72 158.72 160.996z" />
<glyph unicode="&#xe937;" glyph-name="cloud" d="M796.444 170.667h-625.778c-92.917 1.757-167.566 77.494-167.566 170.667 0 94.272 76.423 170.695 170.695 170.695 1.1 0 2.198-0.010 3.293-0.031l-0.164 0.002c-3.862 17.051-6.135 36.671-6.257 56.801v0.088c1.592 155.879 128.326 281.629 284.431 281.629 139.208 0 255.059-100.001 279.636-232.086l0.272-1.757c18.112 5.776 38.945 9.104 60.555 9.104 0.311 0 0.622-0.001 0.933-0.002h-0.048c125.675 0 227.556-101.88 227.556-227.556s-101.88-227.556-227.556-227.556v0zM170.667 455.111c-62.838 0-113.778-50.94-113.778-113.778s50.94-113.778 113.778-113.778v0h625.778c94.257 0 170.667 76.41 170.667 170.667s-76.41 170.667-170.667 170.667v0c-26.979-0.089-52.417-6.596-74.896-18.071l0.94 0.436-39.822-18.773v43.804c-2.081 124.091-103.164 223.888-227.556 223.888-125.692 0-227.586-101.894-227.586-227.586 0-1.3 0.011-2.598 0.033-3.893l-0.003 0.195c0.198-30.179 6.241-58.892 17.050-85.14l-0.552 1.514 22.756-56.889-56.889 20.48c-11.246 3.973-24.214 6.268-37.718 6.268-0.54 0-1.079-0.004-1.617-0.011l0.082 0.001z" />
<glyph unicode="&#xe938;" glyph-name="cloud-download" d="M455.111 455.111h56.889v-389.12l137.102 137.671 40.391-40.391-205.938-205.938-205.938 205.938 40.391 40.391 137.102-137.671zM796.444 739.555c-0.263 0.001-0.574 0.002-0.885 0.002-21.61 0-42.443-3.329-62.013-9.501l1.459 0.397c-24.848 133.841-140.7 233.842-279.907 233.842-156.104 0-282.838-125.75-284.429-281.478l-0.001-0.151c0.122-20.218 2.396-39.837 6.602-58.729l-0.344 1.84c-0.931 0.018-2.029 0.029-3.129 0.029-94.272 0-170.695-76.423-170.695-170.695 0-93.172 74.65-168.909 167.402-170.664l0.164-0.002h199.111v56.889h-199.111c-62.838 0-113.778 50.94-113.778 113.778s50.94 113.778 113.778 113.778v0c13.523-0.216 26.398-2.7 38.356-7.086l-0.809 0.26 56.889-20.48-22.756 56.889c-9.38 23.977-14.817 51.739-14.817 80.77 0 1.204 0.009 2.407 0.028 3.607l-0.002-0.181c-0.019 1.1-0.030 2.398-0.030 3.698 0 125.692 101.894 227.586 227.586 227.586 124.392 0 225.475-99.796 227.553-223.693l0.003-0.195v-43.804l39.253 18.773c21.694 11.119 47.329 17.636 74.485 17.636 0.014 0 0.028 0 0.041 0h-0.002c94.257 0 170.667-76.41 170.667-170.667s-76.41-170.667-170.667-170.667v0h-199.111v-56.889h199.111c125.675 0 227.556 101.88 227.556 227.556s-101.88 227.556-227.556 227.556v0z" />
<glyph unicode="&#xe939;" glyph-name="cloud-upload" d="M455.111 389.12l-137.102-137.671-40.391 40.391 205.938 205.938 205.938-205.938-40.391-40.391-137.102 137.671v-389.12h-56.889zM796.444 739.555c-0.263 0.001-0.574 0.002-0.885 0.002-21.61 0-42.443-3.329-62.013-9.501l1.459 0.397c-24.848 133.841-140.7 233.842-279.907 233.842-156.104 0-282.838-125.75-284.429-281.478l-0.001-0.151c0.122-20.218 2.396-39.837 6.602-58.729l-0.344 1.84c-3.574 0.266-7.743 0.418-11.947 0.418-94.487 0-171.084-76.597-171.084-171.084 0-90.283 69.933-164.233 158.584-170.635l0.553-0.032c2.252 3.417 4.688 6.395 7.395 9.102v0l46.080 47.787h-35.84c-62.838 0-113.778 50.94-113.778 113.778s50.94 113.778 113.778 113.778v0c13.523-0.216 26.398-2.7 38.356-7.086l-0.809 0.26 56.889-20.48-22.756 56.889c-9.38 23.977-14.817 51.739-14.817 80.77 0 1.204 0.009 2.407 0.028 3.607l-0.002-0.181c-0.019 1.1-0.030 2.398-0.030 3.698 0 125.692 101.894 227.586 227.586 227.586 124.392 0 225.475-99.796 227.553-223.693l0.003-0.195v-43.804l39.253 18.773c21.694 11.119 47.329 17.636 74.485 17.636 0.014 0 0.028 0 0.041 0h-0.002c94.257 0 170.667-76.41 170.667-170.667s-76.41-170.667-170.667-170.667v0h-35.84l46.080-46.080c2.708-2.707 5.144-5.685 7.264-8.89l0.132-0.212c113.797 13.681 201.148 109.648 201.148 226.018 0 122.59-96.94 222.539-218.345 227.373l-0.439 0.014z" />
<glyph unicode="&#xe93a;" glyph-name="code" d="M274.773 610.987l-184.32-184.32 184.32-184.32-40.391-40.391-224.711 224.711 227.556 224.711zM749.227 610.987l184.32-184.32-184.32-184.32 40.391-40.391 224.711 224.711-224.711 224.711zM635.449 591.075l-287.858-288.427 40.391-40.391 288.427 288.427z" />
<glyph unicode="&#xe93b;" glyph-name="code-document" d="M628.622 910.222h-514.844v-910.222h796.444v625.778zM625.778 832.284l204.231-206.507h-204.231zM853.333 56.889h-682.667v796.444h398.222v-284.444h284.444zM470.471 490.382l-120.604-120.604 120.604-120.604-40.391-40.391-160.996 160.996 160.996 160.996zM553.529 490.382l40.391 40.391 160.996-160.996-160.996-160.996-40.391 40.391 120.604 120.604z" />
<glyph unicode="&#xe93c;" glyph-name="coins" d="M512 796.444c-220.16 0-398.222-76.231-398.222-170.667v-341.333c0-94.436 178.062-170.667 398.222-170.667s398.222 76.231 398.222 170.667v341.333c0 94.436-178.062 170.667-398.222 170.667zM853.333 284.444c0-40.391-129.707-113.778-341.333-113.778s-341.333 73.387-341.333 113.778v26.169c89.703-52.631 197.559-83.714 312.674-83.714 10.080 0 20.104 0.238 30.067 0.71l-1.408-0.053c8.555-0.418 18.579-0.657 28.659-0.657 115.115 0 222.971 31.083 315.632 85.314l-2.957-1.599zM853.333 398.222c0-40.391-129.707-113.778-341.333-113.778s-341.333 73.387-341.333 113.778v26.169c89.703-52.631 197.559-83.714 312.674-83.714 10.080 0 20.104 0.238 30.067 0.71l-1.408-0.053c8.555-0.418 18.579-0.657 28.659-0.657 115.115 0 222.971 31.083 315.632 85.314l-2.957-1.599zM853.333 512c0-40.391-129.707-113.778-341.333-113.778s-341.333 73.387-341.333 113.778v26.169c89.703-52.631 197.559-83.714 312.674-83.714 10.080 0 20.104 0.238 30.067 0.71l-1.408-0.053c8.555-0.418 18.579-0.657 28.659-0.657 115.115 0 222.971 31.083 315.632 85.314l-2.957-1.599zM512 512c-211.627 0-341.333 73.387-341.333 113.778s129.707 113.778 341.333 113.778 341.333-73.387 341.333-113.778-129.707-113.778-341.333-113.778z" />
<glyph unicode="&#xe93d;" glyph-name="color" d="M791.893 547.271c2.546 13.473 4.187 29.168 4.545 45.18l0.006 0.332c0 157.094-127.35 284.444-284.444 284.444s-284.444-127.35-284.444-284.444v0c0.364-16.343 2.005-32.038 4.828-47.318l-0.277 1.807c-103.448-44.107-174.644-144.938-174.644-262.398 0-157.094 127.35-284.444 284.444-284.444 64.104 0 123.256 21.206 170.822 56.985l-0.729-0.525c47.451-36.773 107.825-58.949 173.379-58.949 157.094 0 284.444 127.35 284.444 284.444 0 118.709-72.718 220.433-176.040 263.058l-1.89 0.691zM284.444 592.782c0 125.675 101.88 227.556 227.556 227.556s227.556-101.88 227.556-227.556v0c0.281-4.422 0.441-9.588 0.441-14.791s-0.16-10.37-0.476-15.494l0.035 0.703c-17.739 4.069-38.11 6.401-59.026 6.401-63.766 0-122.469-21.676-169.143-58.062l0.614 0.461c-46.946 35.516-106.311 56.889-170.667 56.889v0c-0.084 0-0.184 0-0.284 0-20.036 0-39.587-2.071-58.453-6.012l1.849 0.323c-0.281 4.422-0.441 9.588-0.441 14.791s0.16 10.37 0.476 15.494l-0.035-0.703zM568.889 284.444c-0.382-57.299-21.883-109.504-57.098-149.289l0.209 0.24c-35.006 39.545-56.507 91.75-56.888 148.97v0.079c0.43 10.647 1.448 20.645 3.037 30.452l-0.192-1.439c16.249-3.256 34.929-5.119 54.044-5.119s37.795 1.863 55.869 5.418l-1.824-0.299c1.396-8.368 2.415-18.366 2.828-28.52l0.016-0.493zM512 365.227c-14.403 0.187-28.344 1.628-41.876 4.219l1.485-0.237c10.555 24.685 24.131 45.922 40.607 64.533l-0.216-0.248c16.26-18.362 29.836-39.599 39.805-62.754l0.586-1.53c-12.048-2.354-25.988-3.795-40.232-3.981l-0.159-0.002zM417.564 386.275c-51.929 25.12-92.051 67.825-113.232 120.215l-0.546 1.527c11.091 2.188 24.025 3.621 37.229 3.975l0.318 0.007c0.222 0.001 0.486 0.001 0.749 0.001 47.875 0 92.218-15.125 128.511-40.857l-0.691 0.465c-21.597-24.191-39.27-52.461-51.661-83.417l-0.677-1.917zM554.098 471.609c35.601 25.267 79.944 40.392 127.82 40.392 0.263 0 0.527 0 0.79-0.001h-0.041c14.403-0.187 28.344-1.628 41.876-4.219l-1.485 0.237c-22.388-54.345-63.546-97.163-115.218-121.157l-1.404-0.585c-13.067 32.872-30.741 61.142-52.582 85.612l0.244-0.279zM113.778 284.444c0.219 91.229 54.088 169.823 131.717 205.921l1.403 0.586c28.414-73.1 83.99-130.342 154.020-160.29l1.855-0.705c-2.515-13.447-4.154-29.14-4.544-45.143l-0.007-0.368c0.425-72.001 27.535-137.589 71.93-187.45l-0.25 0.285c-35.601-25.267-79.944-40.392-127.82-40.392-0.263 0-0.527 0-0.79 0.001h0.041c-125.675 0-227.556 101.88-227.556 227.556v0zM682.667 56.889c-0.222-0.001-0.486-0.001-0.749-0.001-47.875 0-92.218 15.125-128.511 40.857l0.691-0.465c44.145 49.576 71.255 115.163 71.68 187.076v0.088c-0.397 16.371-2.036 32.064-4.831 47.354l0.28-1.843c71.886 30.654 127.462 87.896 155.211 159.059l0.665 1.937c78.567-36.995 131.977-115.515 131.977-206.51 0-125.273-101.229-226.904-226.35-227.552h-0.062z" />
<glyph unicode="&#xe93e;" glyph-name="comment" d="M227.556 16.498v211.058h-113.778v568.889h796.444v-568.889h-471.609zM170.667 739.555v-455.111h113.778v-130.276l130.276 130.276h438.613v455.111z" />
<glyph unicode="&#xe93f;" glyph-name="comment-text" d="M227.556 16.498v211.058h-113.778v568.889h796.444v-568.889h-471.609zM170.667 739.555v-455.111h113.778v-130.276l130.276 130.276h438.613v455.111zM739.556 625.778h-455.111v-56.889h455.111zM739.556 455.111h-455.111v-56.889h455.111z" />
<glyph unicode="&#xe940;" glyph-name="compass" d="M483.556 708.835l85.333-282.169-83.058-284.444-87.609 284.444 83.058 284.444zM483.556 910.222l-142.222-483.556 142.222-483.556 142.222 483.556-142.222 483.556zM483.556 568.889l-42.667-142.222h85.333l-42.667 142.222zM386.844 69.973c-158.192 44.274-272.282 187.16-272.282 356.693s114.089 312.42 269.679 356.070l2.603 0.624 18.773 62.578c-199.205-38.584-347.571-211.601-347.571-419.271s148.366-380.687 344.883-418.837l2.687-0.434zM562.062 845.938l18.204-62.578c158.192-44.274 272.282-187.16 272.282-356.693s-114.089-312.42-269.679-356.070l-2.603-0.624-18.204-62.578c199.205 38.584 347.571 211.601 347.571 419.271s-148.366 380.687-344.883 418.837l-2.687 0.434z" />
<glyph unicode="&#xe941;" glyph-name="connect" d="M739.556 853.333c62.838 0 113.778-50.94 113.778-113.778s-50.94-113.778-113.778-113.778c-62.838 0-113.778 50.94-113.778 113.778v0c0 62.838 50.94 113.778 113.778 113.778v0zM739.556 284.444c62.838 0 113.778-50.94 113.778-113.778s-50.94-113.778-113.778-113.778c-62.838 0-113.778 50.94-113.778 113.778v0c0 62.838 50.94 113.778 113.778 113.778v0zM246.898 568.889c62.838 0 113.778-50.94 113.778-113.778s-50.94-113.778-113.778-113.778c-62.838 0-113.778 50.94-113.778 113.778v0c0 62.838 50.94 113.778 113.778 113.778v0zM739.556 341.333c-52.559-0.243-99.472-24.207-130.618-61.728l-0.227-0.281-202.524 118.898c6.65 16.882 10.505 36.435 10.505 56.889s-3.855 40.007-10.878 57.973l0.373-1.084 202.524 113.778c31.518-37.42 78.399-61.031 130.794-61.031 94.257 0 170.667 76.41 170.667 170.667s-76.41 170.667-170.667 170.667c-92.8 0-168.301-74.067-170.612-166.31l-0.004-0.214c0.564-20.596 4.69-40.067 11.78-58.046l-0.402 1.157-202.524-118.898c-31.532 37.993-78.765 62.009-131.608 62.009-94.257 0-170.667-76.41-170.667-170.667s76.41-170.667 170.667-170.667c52.843 0 100.076 24.016 131.381 61.728l0.227 0.281 202.524-118.898c-6.688-16.821-10.814-36.293-11.373-56.655l-0.005-0.234c0-94.257 76.41-170.667 170.667-170.667s170.667 76.41 170.667 170.667c0 94.257-76.41 170.667-170.667 170.667v0z" />
<glyph unicode="&#xe942;" glyph-name="contacts" d="M56.889 910.222v-910.222h910.222v910.222zM739.556 56.889h-625.778v796.444h625.778zM910.222 56.889h-113.778v113.778h113.778zM910.222 227.555h-113.778v113.778h113.778zM910.222 398.222h-113.778v113.778h113.778zM910.222 568.889h-113.778v113.778h113.778zM910.222 739.555h-113.778v113.778h113.778zM596.764 227.555h-341.333c-22.817 0.171-42.762 12.309-53.886 30.442l-0.158 0.278c-4.537 8.221-7.207 18.021-7.207 28.444s2.67 20.224 7.363 28.754l-0.156-0.309c28.167 50.758 71.348 90.269 123.489 113.126l1.667 0.652c9.116 4.552 15.267 13.812 15.267 24.509 0 1.794-0.173 3.548-0.503 5.245l0.028-0.172v12.516c0.012 0.295 0.020 0.642 0.020 0.99 0 6.954-2.835 13.245-7.413 17.781l-0.002 0.002c-30.305 26.131-49.372 64.574-49.372 107.47 0 68.324 48.372 125.35 112.738 138.7l0.918 0.159c8.552 1.69 18.385 2.657 28.444 2.657s19.892-0.967 29.412-2.813l-0.967 0.156c64.606-14.049 112.282-70.744 112.282-138.575 0-43.050-19.204-81.614-49.513-107.594l-0.191-0.16c-3.63-4.315-5.836-9.932-5.836-16.065 0-0.954 0.053-1.895 0.157-2.822l-0.010 0.114v-12.516c0-0.017 0-0.037 0-0.057 0-11.153 6.419-20.807 15.764-25.469l0.165-0.074c53.949-23.277 97.199-62.855 124.487-112.453l0.668-1.325c4.537-8.221 7.207-18.021 7.207-28.444s-2.67-20.224-7.363-28.754l0.156 0.309c-10.724-20.645-31.881-34.541-56.298-34.702h-0.022zM426.098 682.667c-2.815 0.307-6.081 0.482-9.387 0.482s-6.571-0.175-9.787-0.517l0.4 0.034c-32.825-7.454-58.257-32.696-65.873-64.831l-0.118-0.591c-1.448-5.884-2.279-12.64-2.279-19.589 0-25.768 11.422-48.869 29.479-64.516l0.107-0.090c18.061-14.781 29.516-37.050 29.582-61.998v-12.527c0-0.045 0-0.099 0-0.153 0-34.362-20.584-63.915-50.094-77.003l-0.537-0.213c-41.961-18.698-75.434-50.151-96.189-89.371l-0.522-1.082c0-3.413 0-6.258 5.689-6.258h341.333c2.139 0.044 4.009 1.155 5.105 2.821l0.015 0.024 25.6 16.498-25.031-13.084c-21.277 40.302-54.75 71.755-95.448 89.949l-1.263 0.505c-30.56 12.995-51.628 42.704-51.769 77.351v12.534c-0.011 0.506-0.018 1.103-0.018 1.702 0 23.996 10.537 45.531 27.236 60.231l0.089 0.077c19.286 15.769 31.499 39.563 31.499 66.209 0 6.372-0.698 12.58-2.023 18.553l0.106-0.567c-7.822 32.866-33.499 58.163-65.983 65.316l-0.577 0.107c-2.815 0.307-6.081 0.482-9.387 0.482s-6.571-0.175-9.787-0.517l0.4 0.034z" />
<glyph unicode="&#xe943;" glyph-name="contract" d="M671.289 568.889h187.733v-56.889h-284.444v284.444h56.889v-187.164l311.182 311.182 40.391-39.822zM52.338 29.582l39.822-39.822 311.751 311.182v-187.164h56.889v284.444h-284.444v-56.889h187.164z" />
<glyph unicode="&#xe944;" glyph-name="contrast" d="M512 910.222c-251.351 0-455.111-203.76-455.111-455.111s203.76-455.111 455.111-455.111c251.351 0 455.111 203.76 455.111 455.111v0c0 251.351-203.76 455.111-455.111 455.111v0zM612.693 69.973l284.444 284.444c-37.357-139.458-144.987-247.087-281.659-283.807l-2.785-0.637zM519.396 56.889h-7.396c-5.012-0.271-10.879-0.425-16.782-0.425s-11.77 0.154-17.597 0.459l0.815-0.034c-212.786 9.246-381.793 183.997-381.793 398.222 0 220.127 178.448 398.576 398.576 398.576 5.902 0 11.775-0.128 17.615-0.382l-0.832 0.029v-79.076l72.249 72.249c24.732-4.904 45.909-10.8 66.429-18.082l-3.282 1.016-135.396-135.964v-80.213l191.147 191.147c18.857-10.666 34.839-21.202 50.068-32.684l-1.144 0.826-240.071-240.071v-80.213l284.444 284.444c13.246-13.074 25.383-27.196 36.303-42.258l0.675-0.977-321.422-321.422v-80.782l351.004 351.573c8.483-15.769 16.744-34.555 23.581-54.012l0.881-2.877-375.467-374.898v-80.782l391.964 392.533c3.897-20.31 6.17-43.71 6.258-67.624v-0.073s0-4.551 0-7.396z" />
<glyph unicode="&#xe945;" glyph-name="copy" d="M227.556 796.444v-796.444h682.667v796.444zM853.333 56.889h-568.889v682.667h568.889zM113.778 910.222h568.889v-56.889h56.889v113.778h-682.667v-853.333h113.778v56.889h-56.889z" />
<glyph unicode="&#xe946;" glyph-name="credit-card" d="M938.667 796.444h-853.333c-47.128 0-85.333-38.205-85.333-85.333v0-568.889c0-47.128 38.205-85.333 85.333-85.333v0h853.333c47.128 0 85.333 38.205 85.333 85.333v0 568.889c0 47.128-38.205 85.333-85.333 85.333v0zM85.333 739.555h853.333c15.709 0 28.444-12.735 28.444-28.444v0-113.778h-910.222v113.778c0 15.709 12.735 28.444 28.444 28.444v0zM938.667 113.778h-853.333c-15.709 0-28.444 12.735-28.444 28.444v0 398.222h910.222v-398.222c0-15.709-12.735-28.444-28.444-28.444v0zM113.778 398.222h398.222v-56.889h-398.222zM113.778 284.444h113.778v-56.889h-113.778zM284.444 284.444h113.778v-56.889h-113.778zM824.889 341.333c15.709 0 28.444-12.735 28.444-28.444s-12.735-28.444-28.444-28.444v0h-113.778c-15.709 0-28.444 12.735-28.444 28.444s12.735 28.444 28.444 28.444v0h113.778zM824.889 398.222h-113.778c-47.128 0-85.333-38.205-85.333-85.333s38.205-85.333 85.333-85.333v0h113.778c47.128 0 85.333 38.205 85.333 85.333s-38.205 85.333-85.333 85.333v0z" />
<glyph unicode="&#xe947;" glyph-name="crop" d="M967.111 227.555h-170.667v471.609l142.791 142.791-40.391 40.391-142.791-142.791h-471.609v170.667h-56.889v-170.667h-170.667v-56.889h170.667v-512h512v-170.667h56.889v170.667h170.667zM699.164 682.667l-414.72-414.72v414.72zM324.836 227.555l414.72 414.72v-414.72z" />
<glyph unicode="&#xe948;" glyph-name="css" d="M227.556 85.333c0-15.709-12.735-28.444-28.444-28.444v0h-56.889c-1.584-0.111-3.432-0.175-5.295-0.175-44.301 0-80.213 35.913-80.213 80.213 0 1.863 0.064 3.711 0.188 5.543l-0.014-0.248v227.556c0 21.049-7.396 28.444-28.444 28.444-15.709 0-28.444 12.735-28.444 28.444s12.735 28.444 28.444 28.444v0c21.049 0 28.444 7.396 28.444 28.444v227.556c-0.111 1.584-0.175 3.432-0.175 5.295 0 44.301 35.913 80.213 80.213 80.213 1.863 0 3.711-0.064 5.543-0.188l-0.248 0.014h56.889c15.709 0 28.444-12.735 28.444-28.444s-12.735-28.444-28.444-28.444v0h-56.889c-19.911 0-28.444-7.964-28.444-28.444v-227.556c0.024-0.756 0.038-1.646 0.038-2.539 0-20.69-7.315-39.671-19.499-54.5l0.119 0.149c12.065-14.679 19.38-33.66 19.38-54.35 0-0.893-0.014-1.782-0.041-2.668l0.003 0.13v-227.556c0-20.48 8.533-28.444 28.444-28.444h56.889c15.709 0 28.444-12.735 28.444-28.444v0zM739.556 85.333c0-15.709 12.735-28.444 28.444-28.444v0h56.889c1.584-0.111 3.432-0.175 5.295-0.175 44.301 0 80.213 35.913 80.213 80.213 0 1.863-0.064 3.711-0.188 5.543l0.014-0.248v227.556c0 21.049 7.396 28.444 28.444 28.444 15.709 0 28.444 12.735 28.444 28.444s-12.735 28.444-28.444 28.444v0c-21.049 0-28.444 7.396-28.444 28.444v227.556c0.111 1.584 0.175 3.432 0.175 5.295 0 44.301-35.913 80.213-80.213 80.213-1.863 0-3.711-0.064-5.543-0.188l0.248 0.014h-56.889c-15.709 0-28.444-12.735-28.444-28.444s12.735-28.444 28.444-28.444v0h56.889c19.911 0 28.444-7.964 28.444-28.444v-227.556c-0.024-0.756-0.038-1.646-0.038-2.539 0-20.69 7.315-39.671 19.499-54.5l-0.119 0.149c-12.065-14.679-19.38-33.66-19.38-54.35 0-0.893 0.014-1.782 0.041-2.668l-0.003 0.13v-227.556c0-20.48-8.533-28.444-28.444-28.444h-56.889c-15.709 0-28.444-12.735-28.444-28.444v0zM369.778 284.444h-56.889c-15.709 0-28.444 12.735-28.444 28.444v0 227.556c0 15.709 12.735 28.444 28.444 28.444v0h56.889v56.889h-56.889c-47.128 0-85.333-38.205-85.333-85.333v0-227.556c0-47.128 38.205-85.333 85.333-85.333v0h56.889zM568.889 312.889v56.889c0 47.128-38.205 85.333-85.333 85.333v0c-15.582 0.312-28.132 12.862-28.444 28.415v56.918c0 15.709 12.735 28.444 28.444 28.444v0h56.889v56.889h-56.889c-47.128 0-85.333-38.205-85.333-85.333v0-56.889c0-47.128 38.205-85.333 85.333-85.333v0c15.709 0 28.444-12.735 28.444-28.444v0-56.889c-0.312-15.582-12.862-28.132-28.415-28.444h-56.918v-56.889h56.889c47.128 0 85.333 38.205 85.333 85.333v0zM739.556 312.889v56.889c0 47.128-38.205 85.333-85.333 85.333v0c-15.582 0.312-28.132 12.862-28.444 28.415v56.918c0 15.709 12.735 28.444 28.444 28.444v0h56.889v56.889h-56.889c-47.128 0-85.333-38.205-85.333-85.333v0-56.889c0-47.128 38.205-85.333 85.333-85.333v0c15.709 0 28.444-12.735 28.444-28.444v0-56.889c-0.312-15.582-12.862-28.132-28.415-28.444h-56.918v-56.889h56.889c47.128 0 85.333 38.205 85.333 85.333v0z" />
<glyph unicode="&#xe949;" glyph-name="cube" d="M483.556 967.111l-483.556-227.556v-568.889l483.556-227.556 483.556 227.556v568.889zM483.556 903.964l383.431-180.338-383.431-180.338-383.431 180.338zM56.889 682.667l398.222-187.733v-474.453l-398.222 186.027zM910.222 207.644l-398.222-188.302v474.453l398.222 188.871z" />
<glyph unicode="&#xe94a;" glyph-name="cursor" d="M568.889-6.258l-119.467 250.311-164.978-79.076v688.356l536.462-434.631-161.564-77.369 122.311-247.467zM474.453 320.284l119.467-250.311 113.778 52.907-122.311 247.467 132.551 63.147-376.604 303.218v-480.711z" />
<glyph unicode="&#xe94b;" glyph-name="cut" d="M284.444 625.778c-10.505-13.512-26.761-22.122-45.029-22.122-31.419 0-56.889 25.47-56.889 56.889s25.47 56.889 56.889 56.889c12.909 0 24.814-4.3 34.361-11.545l-0.141 0.103c13.829-10.492 22.669-26.937 22.669-45.446 0-13.151-4.463-25.26-11.956-34.895l0.096 0.128zM284.444 284.444c-10.505 13.512-26.761 22.122-45.029 22.122-31.419 0-56.889-25.47-56.889-56.889s25.47-56.889 56.889-56.889c12.909 0 24.814 4.3 34.361 11.545l-0.141-0.103c13.829 10.492 22.669 26.937 22.669 45.446 0 13.151-4.463 25.26-11.956 34.895l0.096-0.128zM603.591 455.111l347.022-266.809c-31.512-40.591-80.315-66.462-135.161-66.462-39.219 0-75.348 13.229-104.169 35.468l0.397-0.294-246.329 190.578-62.009-47.787c5.331-15.798 8.407-33.993 8.407-52.906 0-94.257-76.41-170.667-170.667-170.667s-170.667 76.41-170.667 170.667c0 94.101 76.158 170.414 170.2 170.666h0.024c11.332-0.109 22.344-1.139 33.062-3.019l-1.204 0.175 52.907 40.391-52.907 40.391c-9.514-1.705-20.525-2.736-31.757-2.844l-0.101-0.001c-94.066 0.252-170.224 76.565-170.224 170.666 0 94.257 76.41 170.667 170.667 170.667s170.667-76.41 170.667-170.667c0-18.913-3.076-37.108-8.756-54.111l0.349 1.204 62.009-47.787 248.604 190.578c28.424 21.945 64.553 35.173 103.772 35.173 54.846 0 103.649-25.871 134.872-66.076l0.289-0.387zM512 526.791l46.649-35.84 302.080 232.107c-12.782 5.398-27.642 8.535-43.235 8.535-0.2 0-0.4-0.001-0.6-0.002h0.031c-26.010-0.043-49.964-8.807-69.104-23.523l0.269 0.198zM418.702 383.431l-46.649 35.84-84.764-65.422-25.031 4.551c-3.244 0.388-7 0.61-10.809 0.61s-7.565-0.221-11.258-0.652l0.449 0.043c-0.238 0.002-0.519 0.003-0.8 0.003-25.569 0-49.085-8.785-67.696-23.502l0.229 0.175c-23.37-17.92-39.476-44.302-43.735-74.491l-0.070-0.603c-0.615-4.444-0.966-9.578-0.966-14.795 0-62.838 50.94-113.778 113.778-113.778 0.34 0 0.679 0.001 1.018 0.004h-0.052c26.010 0.043 49.964 8.807 69.104 23.523l-0.269-0.198c27.478 20.992 45.027 53.775 45.027 90.657 0 14.015-2.534 27.438-7.168 39.836l0.257-0.786-12.516 38.116 31.858 24.462zM368.64 565.475l-31.858 24.462 12.516 35.84c3.52 10.484 5.551 22.557 5.551 35.104 0 36.532-17.217 69.042-43.979 89.86l-0.256 0.192c-18.932 14.587-42.984 23.379-69.090 23.379-36.617 0-69.194-17.297-90.005-44.167l-0.194-0.261c-14.317-18.824-22.937-42.659-22.937-68.507 0-35.655 16.401-67.479 42.069-88.341l0.21-0.165c18.382-14.542 41.898-23.327 67.467-23.327 0.281 0 0.562 0.001 0.843 0.003h-0.043c3.244-0.388 7-0.61 10.809-0.61s7.565 0.221 11.258 0.652l-0.449-0.043 25.031 4.551 19.911-15.36 441.458-341.333c18.872-14.517 42.826-23.281 68.826-23.324h0.010c0.169-0.001 0.369-0.001 0.569-0.001 15.593 0 30.454 3.137 43.985 8.814l-0.75-0.279z" />
<glyph unicode="&#xe94c;" glyph-name="danger" d="M143.929 455.111h-113.778c-1.087 8.539-1.707 18.42-1.707 28.444s0.62 19.905 1.825 29.604l-0.117-1.159h113.778c-1.087-8.539-1.707-18.42-1.707-28.444s0.62-19.905 1.825-29.604l-0.117 1.159zM826.596 483.555c0.271-4.251 0.425-9.219 0.425-14.222s-0.154-9.971-0.458-14.898l0.033 0.676h113.778c1.087 8.539 1.707 18.42 1.707 28.444s-0.62 19.905-1.825 29.604l0.117-1.159h-113.778c-0.001-10.026-0.621-19.906-1.824-29.605l0.117 1.161zM864.142 735.004l-98.418-56.889c10.051-14.255 19.361-30.503 27.111-47.609l0.764-1.885 98.987 56.889c-9.761 19.057-19.772 35.255-30.907 50.585l0.755-1.092zM455.111 936.96v-113.778c8.539 1.087 18.42 1.707 28.444 1.707s19.905-0.62 29.604-1.825l-1.159 0.117v113.778c-8.539 1.087-18.42 1.707-28.444 1.707s-19.905-0.62-29.604-1.825l1.159 0.117zM76.231 686.080l98.987-60.302c8.515 18.99 17.825 35.239 28.512 50.449l-0.637-0.956-98.418 56.889c-9.661-13.228-19.096-28.3-27.452-44.032l-0.992-2.048zM686.080 890.88l-56.889-98.987c18.99-8.515 35.239-17.825 50.449-28.512l-0.956 0.637 56.889 98.418c-14.112 9.746-30.328 19.215-47.251 27.458l-2.242 0.986zM287.858 764.018c15.351 10.245 32.949 19.599 51.472 27.153l2.004 0.723-56.889 98.987c-18.937-9.252-34.961-18.715-50.175-29.265l1.251 0.821zM796.444 227.555v-227.556h-625.778v227.556h56.889v256c0 141.385 114.615 256 256 256s256-114.615 256-256v0-256zM284.444 227.555h398.222v256c0 109.966-89.145 199.111-199.111 199.111s-199.111-89.145-199.111-199.111v0zM739.556 170.667h-512v-113.778h512z" />
<glyph unicode="&#xe94d;" glyph-name="date" d="M682.667 170.667h-56.889v245.191c-18.736-6.906-40.373-10.902-62.944-10.902-2.072 0-4.136 0.034-6.191 0.1l0.3-0.008h-8.533v50.062h7.964c46.080 0 71.68 17.067 77.938 51.2v6.827h48.356zM398.222 167.822c-1.272-0.049-2.766-0.077-4.266-0.077-28.501 0-54.636 10.125-75.007 26.974l0.198-0.159c-20.517 17.203-33.743 42.522-34.698 70.951l-0.004 0.16v8.533h56.889v-7.964c-0.003-0.202-0.005-0.441-0.005-0.681 0-13.389 5.197-25.564 13.684-34.618l-0.026 0.028c9.358-8.87 22.030-14.325 35.976-14.325 1.153 0 2.297 0.037 3.432 0.111l-0.155-0.008c0.93-0.062 2.016-0.097 3.111-0.097 14.489 0 27.541 6.156 36.683 15.994l0.029 0.031c12.052 10.325 19.956 25.193 21.040 41.919l0.009 0.178c0.067 1.005 0.106 2.178 0.106 3.36 0 14.382-5.678 27.438-14.914 37.049l0.017-0.018c-11.373 8.624-25.763 13.815-41.365 13.815-1.659 0-3.304-0.059-4.934-0.174l0.219 0.012h-27.307v48.924h17.636c35.271 0 51.769 14.791 51.769 46.649 0.087 0.988 0.137 2.137 0.137 3.298 0 10.635-4.169 20.296-10.962 27.439l0.016-0.017c-7.205 6.769-16.931 10.927-27.628 10.927-1.088 0-2.166-0.043-3.232-0.127l0.141 0.009c-28.444 0-42.667-13.653-46.080-43.236v-7.396h-56.889v9.102c1.894 27.033 14.698 50.748 33.989 67.010l0.144 0.119c17.564 12.852 39.593 20.564 63.425 20.564 1.503 0 2.998-0.031 4.486-0.091l-0.213 0.007c1.499 0.076 3.254 0.12 5.019 0.12 26.428 0 50.581-9.741 69.064-25.828l-0.127 0.109c17.183-15.946 27.902-38.653 27.902-63.864 0-0.748-0.009-1.494-0.028-2.237l0.002 0.11c-0.203-15.836-4.837-30.548-12.716-43.005l0.2 0.339c-5.397-8.816-12.233-16.196-20.262-22.036l-0.218-0.151c12.782-6.011 23.334-14.921 31.124-25.924l0.164-0.245c11.047-14.889 17.684-33.626 17.684-53.913 0-1.047-0.018-2.089-0.053-3.127l0.004 0.151c0.026-0.852 0.040-1.854 0.040-2.859 0-29.682-12.7-56.399-32.962-75.012l-0.074-0.067c-19.689-16.748-45.41-26.935-73.51-26.935-2.358 0-4.699 0.072-7.022 0.213l0.319-0.016zM796.444 853.333v56.889h-170.667v-56.889h-227.556v56.889h-170.667v-56.889h-170.667v-853.333h910.222v853.333zM910.222 56.889h-796.444v568.889h796.444zM910.222 682.667h-796.444v113.778h113.778v-56.889h170.667v56.889h227.556v-56.889h170.667v56.889h113.778zM341.333 796.444h-56.889v56.889h56.889zM739.556 796.444h-56.889v56.889h56.889z" />
<glyph unicode="&#xe94e;" glyph-name="date-add" d="M739.556 455.111v-455.111h-682.667v568.889h625.778v56.889h-625.778v113.778h56.889v-56.889h170.667v56.889h227.556v56.889h-227.556v56.889h-170.667v-56.889h-113.778v-853.333h796.444v512zM170.667 796.444h56.889v-56.889h-56.889zM170.667 217.315v-8.533c0.501-28.347 13.122-53.65 32.887-71.018l0.109-0.094c20.187-16.733 46.355-26.885 74.894-26.885 2.071 0 4.13 0.053 6.174 0.159l-0.286-0.012c1.065-0.036 2.316-0.056 3.572-0.056 29.837 0 56.992 11.485 77.284 30.275l-0.074-0.068c20.336 18.68 33.036 45.396 33.036 75.078 0 1.006-0.015 2.008-0.044 3.006l0.003-0.147c0.031 0.887 0.049 1.93 0.049 2.976 0 20.287-6.637 39.024-17.858 54.158l0.174-0.245c-7.955 11.248-18.507 20.158-30.811 25.966l-0.478 0.203c8.247 5.99 15.083 13.371 20.292 21.857l0.188 0.329c7.678 12.118 12.312 26.831 12.515 42.612l0.001 0.055c0.004 0.313 0.006 0.683 0.006 1.054 0 25.473-10.942 48.39-28.383 64.307l-0.068 0.061c-17.844 14.376-40.787 23.075-65.762 23.075-2.884 0-5.741-0.116-8.566-0.344l0.372 0.024c-0.851 0.024-1.852 0.038-2.857 0.038-25.46 0-48.864-8.803-67.335-23.53l0.218 0.168c-19.436-16.381-32.239-40.096-34.116-66.825l-0.017-0.304v-9.102h56.889v7.396c3.413 29.582 17.636 43.236 46.080 43.236 0.926 0.075 2.004 0.118 3.092 0.118 10.697 0 20.423-4.159 27.65-10.947l-0.021 0.020c6.777-7.126 10.946-16.787 10.946-27.422 0-1.161-0.050-2.31-0.147-3.446l0.010 0.148c0-31.858-16.498-46.649-51.769-46.649h-15.36v-48.924h24.462c1.41 0.103 3.056 0.162 4.715 0.162 15.602 0 29.992-5.191 41.537-13.94l-0.172 0.125c9.219-9.593 14.897-22.649 14.897-37.031 0-1.182-0.038-2.355-0.114-3.518l0.008 0.158c0.032-0.739 0.051-1.606 0.051-2.478 0-15.199-5.623-29.084-14.902-39.69l0.060 0.070c-9.17-9.87-22.222-16.026-36.712-16.026-1.094 0-2.181 0.035-3.258 0.104l0.147-0.008c-0.98-0.065-2.124-0.103-3.277-0.103-13.946 0-26.618 5.455-36 14.347l0.024-0.022c-8.461 9.026-13.658 21.201-13.658 34.59 0 0.239 0.002 0.478 0.005 0.717v-0.036 7.964zM568.889 113.778v341.333h-46.649v-6.827c-6.258-34.133-31.858-51.2-77.938-51.2h-9.671v-48.924h7.964c1.912-0.070 4.157-0.11 6.412-0.11 22.589 0 44.243 4.002 64.292 11.335l-1.3-0.416v-245.191zM1024 796.444h-170.667v170.667h-113.778v-170.667h-170.667v-113.778h170.667v-170.667h113.778v170.667h170.667v113.778z" />
<glyph unicode="&#xe94f;" glyph-name="date-remove" d="M853.333 682.667v-56.889h-284.444v56.889zM348.729 301.511c8.247 5.99 15.083 13.371 20.292 21.857l0.188 0.329c7.678 12.118 12.312 26.831 12.515 42.612l0.001 0.055c0.017 0.633 0.026 1.379 0.026 2.127 0 25.211-10.718 47.918-27.846 63.813l-0.055 0.051c-17.844 14.376-40.787 23.075-65.762 23.075-2.884 0-5.741-0.116-8.566-0.344l0.372 0.024c-0.851 0.024-1.852 0.038-2.857 0.038-25.46 0-48.864-8.803-67.335-23.53l0.218 0.168c-19.436-16.381-32.239-40.096-34.116-66.825l-0.017-0.304v-9.102h56.889v7.396c3.413 29.582 17.636 43.236 46.080 43.236 0.926 0.075 2.004 0.118 3.092 0.118 10.697 0 20.423-4.159 27.65-10.947l-0.021 0.020c6.777-7.126 10.946-16.787 10.946-27.422 0-1.161-0.050-2.31-0.147-3.446l0.010 0.148c0-31.858-16.498-46.649-51.769-46.649h-15.36v-48.924h24.462c1.41 0.103 3.056 0.162 4.715 0.162 15.602 0 29.992-5.191 41.537-13.94l-0.172 0.125c9.219-9.593 14.897-22.649 14.897-37.031 0-1.182-0.038-2.355-0.114-3.518l0.008 0.158c0.032-0.739 0.051-1.606 0.051-2.478 0-15.199-5.623-29.084-14.902-39.69l0.060 0.070c-9.17-9.87-22.222-16.026-36.712-16.026-1.094 0-2.181 0.035-3.258 0.104l0.147-0.008c-0.98-0.065-2.124-0.103-3.277-0.103-13.946 0-26.618 5.455-36 14.347l0.024-0.022c-8.461 9.026-13.658 21.201-13.658 34.59 0 0.239 0.002 0.478 0.005 0.717v-0.036 7.964h-60.302v-8.533c0.501-28.347 13.122-53.65 32.887-71.018l0.109-0.094c19.609-15.132 44.53-24.253 71.582-24.253 3.238 0 6.446 0.131 9.618 0.387l-0.417-0.027c1.065-0.036 2.316-0.056 3.572-0.056 29.837 0 56.992 11.485 77.284 30.275l-0.074-0.068c20.336 18.68 33.036 45.396 33.036 75.078 0 1.006-0.015 2.008-0.044 3.006l0.003-0.147c0.031 0.887 0.049 1.93 0.049 2.976 0 20.287-6.637 39.024-17.858 54.158l0.174-0.245c-8.158 11.088-18.899 19.821-31.36 25.401l-0.497 0.199zM796.444 353.28v-410.169h-796.444v853.333h113.778v56.889h170.667v-56.889h148.48c52.876 102.251 157.834 170.935 278.834 170.935 172.804 0 312.889-140.085 312.889-312.889 0-142.653-95.465-263.008-225.994-300.665l-2.209-0.546zM170.667 739.555h56.889v56.889h-56.889zM56.889 625.778h341.333c-0.278 4.252-0.437 9.219-0.437 14.222s0.159 9.97 0.471 14.895l-0.034-0.673c0.198 30.449 4.547 59.801 12.508 87.629l-0.562-2.295h-125.724v-56.889h-170.667v56.889h-56.889zM739.556 341.333c-4.252-0.278-9.219-0.437-14.222-0.437s-9.97 0.159-14.895 0.471l0.673-0.034c-0.115 0-0.252 0-0.388 0-51.835 0-100.672 12.838-143.504 35.508l1.669-0.806v-262.258h-56.889v245.191c-18.736-6.906-40.373-10.902-62.944-10.902-2.072 0-4.136 0.034-6.191 0.1l0.3-0.008h-8.533v50.062h7.964c2.043-0.181 4.42-0.285 6.822-0.285 21.562 0 41.178 8.33 55.806 21.948l-0.050-0.046c-44.271 38.818-77.352 89.379-94.437 146.827l-0.567 2.222h-353.28v-568.889h682.667zM967.111 654.222c0 141.385-114.615 256-256 256s-256-114.615-256-256c0-141.385 114.615-256 256-256v0c0.169 0 0.369-0.001 0.57-0.001 141.071 0 255.431 114.36 255.431 255.431 0 0.2 0 0.4-0.001 0.6v-0.031z" />
<glyph unicode="&#xe950;" glyph-name="delicious" d="M910.222 853.333v-398.222h-398.222v398.222h398.222zM455.111 398.222v-398.222h-398.222v398.222h398.222zM967.111 910.222h-512v-455.111h-455.111v-512h512v455.111h455.111v512z" />
<glyph unicode="&#xe951;" glyph-name="design" d="M514.844 267.947l-190.009 187.164-40.391 43.236v-327.68h327.68zM341.333 227.555v133.12l133.12-133.12zM56.889 967.111v-967.111h967.111zM113.778 113.778h56.889v56.889h-56.889v113.778h56.889v56.889h-56.889v113.778h56.889v56.889h-56.889v113.778h56.889v56.889h-56.889v147.342l773.12-773.12h-773.12z" />
<glyph unicode="&#xe952;" glyph-name="desktop" d="M1024 910.222h-1024v-739.556h393.671c-12.516-50.062-52.338-113.778-80.782-113.778h-28.444v-56.889h455.111v56.889h-28.444c-28.444 0-68.267 63.716-80.782 113.778h393.671zM625.778 56.889h-227.556c23.979 32.131 41.79 70.346 50.844 111.834l0.356 1.944h120.604c10.839-43.701 30.14-81.855 56.2-114.357l-0.449 0.579zM967.111 227.555h-910.222v113.778h910.222zM967.111 398.222h-910.222v455.111h910.222z" />
<glyph unicode="&#xe953;" glyph-name="device-rotate" d="M89.316 515.413l482.987-482.987c10.283-10.224 24.457-16.543 40.107-16.543s29.824 6.319 40.109 16.546l284.441 284.441c10.224 10.283 16.543 24.457 16.543 40.107s-6.319 29.824-16.546 40.109l0.003-0.003-485.262 480.711c-10.283 10.224-24.457 16.543-40.107 16.543s-29.824-6.319-40.109-16.546l-284.441-284.441c-8.9-9.995-14.338-23.242-14.338-37.76 0-15.685 6.348-29.888 16.615-40.179l-0.001 0.001zM874.382 334.507l-241.778-241.778c-5.127-5.028-12.156-8.131-19.911-8.131s-14.785 3.103-19.916 8.136l0.005-0.004-443.164 443.164c-5.028 5.127-8.131 12.156-8.131 19.911s3.103 14.785 8.136 19.916l-0.004-0.005 80.782 80.782c9.883-8.502 22.839-13.679 37.004-13.679 31.419 0 56.889 25.47 56.889 56.889 0 14.165-5.177 27.121-13.742 37.079l0.063-0.075 80.782 80.213c5.156 5.197 12.3 8.414 20.196 8.414s15.040-3.217 20.194-8.412l442.598-442.598c5.028-5.127 8.131-12.156 8.131-19.911s-3.103-14.785-8.136-19.916l0.004 0.005zM943.787 599.040l-54.044-18.204c-47.982 136.83-163.663 238.533-305.802 265.835l-2.536 0.405 254.862 82.489 17.636-56.889-102.969-30.72c89.595-56.267 157.341-140.213 191.878-239.688l0.975-3.227zM80.213 311.182l56.889 18.204c47.982-136.83 163.663-238.533 305.802-265.835l2.536-0.405-257.707-82.489-17.067 54.044 102.4 33.564c-89.595 56.267-157.341 140.213-191.878 239.688l-0.975 3.227z" />
<glyph unicode="&#xe954;" glyph-name="devices" d="M796.444 739.555v170.667h-796.444v-568.889h341.333v-113.778h-113.778v-56.889h341.333v-170.667h455.111v739.556zM568.889 227.555h-113.778v113.778h113.778zM568.889 398.222h-512v455.111h682.667v-113.778h-170.667zM967.111 56.889h-341.333v625.778h341.333z" />
<glyph unicode="&#xe955;" glyph-name="diagnose" d="M398.222 711.111c0 78.547-63.675 142.222-142.222 142.222s-142.222-63.675-142.222-142.222c0-78.547 63.675-142.222 142.222-142.222v0c78.547 0 142.222 63.675 142.222 142.222v0zM170.667 711.111c0 47.128 38.205 85.333 85.333 85.333s85.333-38.205 85.333-85.333c0-47.128-38.205-85.333-85.333-85.333v0c-47.128 0-85.333 38.205-85.333 85.333v0zM967.111 768c-30.77-0.833-55.397-25.975-55.397-56.869 0-20.335 10.669-38.177 26.715-48.236l0.238-0.139v-150.756c0-62.838-50.94-113.778-113.778-113.778s-113.778 50.94-113.778 113.778v0 150.756c17.124 10.019 28.444 28.321 28.444 49.267 0 31.419-25.47 56.889-56.889 56.889s-56.889-25.47-56.889-56.889c0-20.946 11.32-39.248 28.176-49.122l0.268-0.145v-150.756c-0.011-0.709-0.017-1.546-0.017-2.384 0-84.215 60.996-154.183 141.22-168.136l1.019-0.147v-31.289c0-141.385-114.615-256-256-256s-256 114.615-256 256v0 145.067c128.613 14.798 227.556 123.052 227.556 254.415 0 141.385-114.615 256-256 256s-256-114.615-256-256c0-131.363 98.943-239.617 226.37-254.304l1.185-0.111v-142.222c0-172.804 140.085-312.889 312.889-312.889s312.889 140.085 312.889 312.889v0 28.444c81.243 14.099 142.239 84.068 142.239 168.282 0 0.838-0.006 1.675-0.018 2.511l0.001-0.127v150.756c16.283 10.198 26.952 28.040 26.952 48.375 0 30.894-24.626 56.037-55.32 56.868l-0.077 0.002zM56.889 711.111c0 109.966 89.145 199.111 199.111 199.111s199.111-89.145 199.111-199.111c0-109.966-89.145-199.111-199.111-199.111v0c-109.966 0-199.111 89.145-199.111 199.111v0z" />
<glyph unicode="&#xe956;" glyph-name="digg" d="M341.333 625.778h56.889v-341.333h-56.889zM227.556 739.555h56.889v-455.111h-227.556v341.333h170.667zM227.556 568.889h-113.778v-227.556h113.778zM341.333 682.667h56.889v56.889h-56.889zM455.111 625.778h227.556v-455.111h-227.556v56.889h170.667v56.889h-170.667zM512 341.333h113.778v227.556h-113.778zM967.111 625.778v-455.111h-227.556v56.889h170.667v56.889h-170.667v341.333zM910.222 341.333v227.556h-113.778v-227.556z" />
<glyph unicode="&#xe957;" glyph-name="disk" d="M796.444 853.333h-568.889l-170.667-455.111v-284.444h910.222v284.444zM266.809 796.444h490.382l149.049-398.222h-788.48zM910.222 170.667h-796.444v170.667h796.444zM284.444 227.555h-56.889v56.889h56.889z" />
<glyph unicode="&#xe958;" glyph-name="document" d="M628.622 910.222h-514.844v-910.222h796.444v625.778zM625.778 832.284l204.231-206.507h-204.231zM853.333 56.889h-682.667v796.444h398.222v-284.444h284.444z" />
<glyph unicode="&#xe959;" glyph-name="document-add" d="M455.111 796.444h-170.667v170.667h-113.778v-170.667h-170.667v-113.778h170.667v-170.667h113.778v170.667h170.667v113.778zM742.4 796.444h-230.4v-56.889h170.667v-227.556h227.556v-455.111h-568.889v398.222h-56.889v-455.111h682.667v568.889zM739.556 568.889v149.618l147.342-149.618z" />
<glyph unicode="&#xe95a;" glyph-name="document-remove" d="M742.4 796.444h-151.324c-53.149 101.378-157.649 169.356-278.025 169.356-172.804 0-312.889-140.085-312.889-312.889 0-162.732 124.231-296.448 283.028-311.482l1.255-0.096v-341.333h682.667v568.889zM739.556 718.507l147.342-149.618h-147.342zM56.889 654.222c0 141.385 114.615 256 256 256s256-114.615 256-256c0-141.385-114.615-256-256-256v0c-0.169 0-0.369-0.001-0.57-0.001-141.071 0-255.431 114.36-255.431 255.431 0 0.2 0 0.4 0.001 0.6v-0.031zM910.222 56.889h-568.889v284.444c160.075 14.768 284.45 148.397 284.45 311.074 0 0.638-0.002 1.276-0.006 1.913v-0.098c-0.198 30.449-4.547 59.801-12.508 87.629l0.562-2.295h68.836v-227.556h227.556zM455.111 625.778h-284.444v56.889h284.444z" />
<glyph unicode="&#xe95b;" glyph-name="documents" d="M685.511 910.222h-457.956v-170.667h-170.667v-796.444h682.667v170.667h170.667v568.889zM682.667 832.284l147.342-149.618h-147.342zM682.667 0h-568.889v682.667h113.778v-568.889h455.111zM853.333 170.667h-568.889v682.667h341.333v-227.556h227.556z" />
<glyph unicode="&#xe95c;" glyph-name="download" d="M455.111 853.333h56.889v-389.12l193.991 194.56 40.391-40.391-262.827-262.827-262.827 262.827 40.391 40.391 193.991-194.56zM853.333 284.444v-170.667h-739.556v170.667h-56.889v-227.556h853.333v227.556z" />
<glyph unicode="&#xe95d;" glyph-name="cake" d="M853.333 56.889v341.333c0 62.838-50.94 113.778-113.778 113.778v0h-227.556v113.778h-56.889v-113.778h-227.556c-62.838 0-113.778-50.94-113.778-113.778v0-341.333h-56.889v-56.889h853.333v56.889zM170.667 56.889v341.333c0 31.419 25.47 56.889 56.889 56.889v0h512c31.419 0 56.889-25.47 56.889-56.889v0-341.333zM483.556 682.667c0 0-0.001 0-0.002 0-51.013 0-92.404 41.192-92.727 92.129v0.031c-0.040 1.21-0.063 2.632-0.063 4.059 0 70.999 56.304 128.848 126.698 131.33l0.227 0.006h51.2l-20.48-20.48c-3.51-5.334-5.6-11.874-5.6-18.902 0-10.661 4.808-20.2 12.374-26.566l0.053-0.043c14.616-16.848 23.523-38.993 23.523-63.218 0-2.177-0.072-4.337-0.213-6.478l0.015 0.291c0-0.013 0-0.028 0-0.044 0-50.899-41.261-92.16-92.16-92.16-1 0-1.997 0.016-2.989 0.048l0.145-0.004zM483.556 844.231c-23.036-14.497-38.12-39.786-38.12-68.598 0-0.284 0.001-0.567 0.004-0.85v0.043c0.28-19.579 16.217-35.344 35.837-35.344 0.802 0 1.598 0.026 2.386 0.078l-0.107-0.006c19.48 0 35.271 15.791 35.271 35.271v0c0.005 0.279 0.007 0.609 0.007 0.939 0 13.581-4.49 26.113-12.065 36.194l0.112-0.155c-9.964 8.26-17.34 19.321-20.939 31.973l-0.11 0.453z" />
<glyph unicode="&#xe95e;" glyph-name="earth" d="M512 967.111c-282.77 0-512-229.23-512-512s229.23-512 512-512c282.77 0 512 229.23 512 512v0c0 282.77-229.23 512-512 512v0zM512 0c-83.836 0.154-162.315 22.951-229.687 62.6l2.132-1.16c-9.671 23.893 0 33.564 7.964 52.338h-80.213c-95.149 83.616-154.975 205.455-155.307 341.274v0.059c0.191 20.25 1.632 39.969 4.251 59.314l-0.269-2.425h12.516c-1.492 4.846-2.352 10.416-2.352 16.188 0 15.947 6.561 30.361 17.132 40.691l0.011 0.011h-16.498c5.976 22.757 12.392 41.696 19.924 60.059l-1.151-3.17h56.889c6.362 15.428 14.196 28.744 23.607 40.765l-0.282-0.374c7.285 6.203 15.501 11.693 24.319 16.17l0.712 0.328h-77.369c12.767 21.74 25.543 40.318 39.482 57.934l-0.798-1.045h146.204c0.22 1.368 0.345 2.945 0.345 4.551s-0.126 3.183-0.368 4.722l0.022-0.17c-5.589 10.43-8.872 22.818-8.872 35.973 0 4.17 0.33 8.263 0.965 12.254l-0.058-0.44h-83.058c23.517 21.027 49.798 39.875 77.984 55.736l2.229 1.153c11.947 6.827 24.462 12.516 36.978 18.204 7.313 2.861 15.781 4.52 24.636 4.52 4.363 0 8.631-0.403 12.771-1.172l-0.429 0.066c7.396 0 3.413-5.12-5.689-23.324h113.778c14.222 2.844 27.876 5.12 40.96 8.533 23.674 7.611 42.624 24.153 53.242 45.559l0.234 0.521c45.211-5.635 86.319-17.033 124.699-33.559l-2.956 1.133c-5.052-7.831-9.921-14.509-15.124-20.903l0.333 0.423h56.889c30.416-17.014 56.697-35.862 80.644-57.267l-0.43 0.378h-159.858c10.809-9.671 13.653-11.947-5.689-25.031s-28.444 3.413-29.582 25.031h-32.996c-3.982-12.516-10.24-25.031 0-25.031s15.36-7.396 0-15.36-11.947-12.516-5.12-16.498h284.444c13.141-16.571 25.917-35.148 37.415-54.572l1.269-2.317h-358.4c5.12-16.498 16.498-16.498 27.876-16.498s37.547-15.36-15.36-22.756c-12.373-2.304-22.981-8.639-30.661-17.566l-0.059-0.070h407.324c6.381-15.194 12.797-34.133 18.013-53.563l0.76-3.326h-455.111c-3.413-12.516-5.689-25.6-7.964-38.684s0-11.947 0-18.204h475.022c1.828-15.564 2.871-33.594 2.871-51.867 0-1.766-0.010-3.53-0.029-5.291l0.002 0.269c0-251.351-203.76-455.111-455.111-455.111v0zM352.711 227.555c1.031-3.444 1.624-7.402 1.624-11.499 0-9.144-2.956-17.599-7.963-24.459l0.082 0.118c-13.653-19.911-21.049-17.067-32.996-21.049h-149.049c-1.988 20.967-6.619 40.258-13.591 58.387l0.507-1.499zM361.244 284.444h-247.467c-12.146 16.238-21.856 35.156-28.102 55.587l-0.342 1.301h232.107c11.277-4.459 20.825-9.234 29.896-14.718l-0.883 0.495c10.749-5.271 18.018-16.134 18.018-28.695 0-5.085-1.192-9.892-3.311-14.157l0.083 0.185zM236.658 398.222h-155.307c-1.158 21.626-8.893 41.245-21.221 57.12l0.172-0.231h97.849c21.049-12.516 22.756-26.169 60.302-44.942 6.937-3.766 12.892-7.725 18.464-12.146l-0.26 0.199zM703.147 227.555h170.667c-10.542-21.678-22.676-40.361-36.78-57.349l0.371 0.46h-125.156c0 6.827-3.982 13.653-6.258 21.049-2.27 7.368-3.577 15.837-3.577 24.612 0 3.959 0.266 7.856 0.781 11.674l-0.049-0.445zM934.684 398.222h-264.533c-5.096 3.9-11.559 6.249-18.571 6.249-4.175 0-8.155-0.833-11.784-2.341l0.203 0.075-20.48-3.982h-63.147c-11.194 2.615-21.068 6.731-30.027 12.199l0.445-0.253c-16.274 10.153-28.275 25.855-33.437 44.406l-0.127 0.536h455.111c10.24-20.48 5.689-32.427-13.653-56.889zM694.613 341.333h212.196c-1.411-21.072-4.242-40.538-8.449-59.487l0.484 2.598h-184.889c-2.611 21.297-9.468 40.554-19.707 57.541l0.365-0.652z" />
<glyph unicode="&#xe95f;" glyph-name="edit" d="M923.876 719.644l-147.342 147.342c-15.5 15.284-36.799 24.724-60.302 24.724s-44.802-9.439-60.312-24.733l0.010 0.010-459.662-460.231c-27.656-29.767-49.101-65.714-62.013-105.507l-0.565-2.013-56.889-203.093c-1.818-5.624-2.867-12.094-2.867-18.81 0-16.727 6.503-31.934 17.12-43.232l-0.031 0.033c10.217-9.868 24.148-15.948 39.499-15.948 0.514 0 1.026 0.007 1.537 0.020l-0.075-0.002c7.546 0.157 14.778 1.185 21.698 2.988l-0.649-0.144 203.093 56.889c41.843 13.342 77.816 34.808 107.68 62.726l-0.16-0.148 460.231 459.662c14.952 15.438 24.168 36.51 24.168 59.733s-9.216 44.295-24.19 59.756l0.022-0.023zM341.333 131.413l-95.004-25.6-83.627 83.627 25.6 95.004c5.714 17.383 12.844 32.438 21.565 46.397l-0.516-0.886 177.493-177.493c-13.073-8.205-28.128-15.335-44.025-20.621l-1.486-0.428zM883.484 639.431l-451.698-451.698-187.164 187.164 451.698 451.698c5.074 5.175 12.103 8.419 19.89 8.533h0.021c8.004-0.020 15.242-3.278 20.479-8.533l146.774-146.774c5.197-5.156 8.414-12.3 8.414-20.196s-3.217-15.040-8.412-20.194l-0.002-0.002z" />
<glyph unicode="&#xe960;" glyph-name="edit-document" d="M938.667 790.755l-91.022 91.022c-16.261 17.541-39.427 28.483-65.148 28.483-23.17 0-44.266-8.879-60.071-23.42l0.063 0.057-267.378-269.653c-11.913-12.144-20.103-27.978-22.701-45.632l-0.054-0.448-22.756-144.498c-0.351-2.558-0.552-5.514-0.552-8.516 0-36.446 29.545-65.991 65.991-65.991 3.003 0 5.958 0.201 8.855 0.589l-0.339-0.037 142.222 20.48c18.163 2.394 34.064 10.64 46.075 22.75l0.005 0.005 271.929 269.653c14.484 15.742 23.363 36.838 23.363 60.008 0 25.721-10.942 48.887-28.426 65.096l-0.057 0.052zM633.742 436.338c-3.372-3.878-8.181-6.43-13.589-6.823l-0.065-0.004-108.089-15.36-40.96 40.96 15.36 108.089c1.057 5.313 3.464 9.946 6.848 13.677l-0.021-0.024 170.667 170.667 140.516-140.516zM903.396 705.422l-56.889-56.889-142.791 138.809 56.889 56.889c5.437 4.099 12.306 6.565 19.752 6.565 10.077 0 19.099-4.518 25.152-11.638l0.039-0.047 92.729-88.178c7.204-6.193 11.738-15.316 11.738-25.499 0-7.539-2.485-14.497-6.681-20.1l0.063 0.087zM796.444 398.222l56.889 56.889v-455.111h-796.444v796.444h455.111l-56.889-56.889h-341.333v-682.667h682.667z" />
<glyph unicode="&#xe961;" glyph-name="edit-text" d="M398.222 568.889h-284.444v56.889h284.444zM341.333 398.222h-227.556v56.889h227.556zM739.556 227.555h-625.778v56.889h625.778zM739.556 56.889h-625.778v56.889h625.778zM995.556 847.644l-91.022 91.022c-16.261 17.541-39.427 28.483-65.148 28.483-23.17 0-44.266-8.879-60.071-23.42l0.063 0.057-267.378-269.653c-11.913-12.144-20.103-27.978-22.701-45.632l-0.054-0.448-22.756-144.498c-0.351-2.558-0.552-5.514-0.552-8.516 0-36.446 29.545-65.991 65.991-65.991 3.003 0 5.958 0.201 8.855 0.589l-0.339-0.037 142.222 20.48c18.163 2.394 34.064 10.64 46.075 22.75l0.005 0.005 271.929 269.653c14.484 15.742 23.363 36.838 23.363 60.008 0 25.721-10.942 48.887-28.426 65.096l-0.057 0.052zM690.631 493.227c-3.372-3.878-8.181-6.43-13.589-6.823l-0.065-0.004-108.089-15.36-40.96 40.96 15.36 108.089c1.057 5.313 3.464 9.946 6.848 13.677l-0.021-0.024 170.667 170.667 140.516-140.516zM960.284 762.311l-56.889-56.889-142.791 138.809 56.889 56.889c5.437 4.099 12.306 6.565 19.752 6.565 10.077 0 19.099-4.518 25.152-11.638l0.039-0.047 92.729-88.178c7.204-6.193 11.738-15.316 11.738-25.499 0-7.539-2.485-14.497-6.681-20.1l0.063 0.087z" />
<glyph unicode="&#xe962;" glyph-name="edit-text-document" d="M341.333 512h-113.778v56.889h113.778zM341.333 398.222h-113.778v-56.889h113.778zM682.667 227.555h-455.111v-56.889h455.111zM796.444 56.889h-682.667v682.667h341.333l56.889 56.889h-455.111v-796.444h796.444v455.111l-56.889-56.889zM943.787 665.6l-269.653-267.378c-12.016-12.116-27.917-20.361-45.678-22.712l-0.402-0.044-144.498-22.756c-2.558-0.351-5.514-0.552-8.516-0.552-36.446 0-65.991 29.545-65.991 65.991 0 3.003 0.201 5.958 0.589 8.855l-0.037-0.339 20.48 142.222c2.801 19.195 11.855 35.893 24.992 48.319l0.039 0.036 267.378 269.653c15.742 14.484 36.838 23.363 60.008 23.363 25.721 0 48.887-10.942 65.096-28.426l0.052-0.057 91.022-91.022c17.541-16.261 28.483-39.427 28.483-65.148 0-23.17-8.879-44.266-23.42-60.071l0.057 0.063zM803.84 608.711l-140.516 138.24-170.667-170.667c-3.363-3.707-5.77-8.34-6.796-13.472l-0.030-0.182-14.791-107.52 39.822-39.822 109.227 15.36c5.473 0.396 10.281 2.949 13.633 6.802l0.021 0.024zM898.276 750.933l-90.453 90.453c-6.091 7.167-15.113 11.685-25.191 11.685-7.445 0-14.315-2.466-19.836-6.626l0.084 0.061-56.889-56.889 140.516-140.516 56.889 56.889c3.977 5.448 6.363 12.277 6.363 19.664 0 10.064-4.429 19.094-11.445 25.245l-0.038 0.033z" />
<glyph unicode="&#xe963;" glyph-name="effect" d="M455.111 0c-219.932 0-398.222 178.29-398.222 398.222s178.29 398.222 398.222 398.222c219.932 0 398.222-178.29 398.222-398.222v0c0-219.932-178.29-398.222-398.222-398.222v0zM796.444 398.222c0 188.513-152.82 341.333-341.333 341.333s-341.333-152.82-341.333-341.333c0-188.513 152.82-341.333 341.333-341.333v0c188.513 0 341.333 152.82 341.333 341.333v0zM455.111 881.778c266.93-0.324 483.232-216.625 483.556-483.524v-0.031c0.134-0.855 0.21-1.841 0.21-2.844s-0.076-1.99-0.224-2.952l0.014 0.108c9.388 31.427 14.791 67.538 14.791 104.911 0 0.117 0 0.235 0 0.352v-0.018c0 219.932-178.29 398.222-398.222 398.222v0c-0.099 0-0.216 0-0.334 0-37.373 0-73.484-5.403-107.594-15.471l2.684 0.679zM455.111 142.222c29.855 0.26 58.369 5.659 84.811 15.353l-1.753-0.562c-175.419 8.837-315.43 148.848-324.234 323.454l-0.033 0.813c-9.132-24.689-14.531-53.203-14.79-82.943l-0.001-0.115c0.323-141.255 114.745-255.677 255.969-256h0.031z" />
<glyph unicode="&#xe964;" glyph-name="eject" d="M853.333 113.778h-682.667v56.889h682.667zM512 761.742l-242.916-420.409h485.831l-242.916 420.409zM512 875.52l341.333-591.076h-682.667l341.333 591.076z" />
<glyph unicode="&#xe965;" glyph-name="email" d="M512 910.222l-455.111-256v-597.333h910.222v597.333zM861.867 647.964l-349.867-185.458-349.867 185.458 349.867 196.836zM910.222 113.778h-796.444v495.502l398.222-211.058 398.222 211.058z" />
<glyph unicode="&#xe966;" glyph-name="email-closed" d="M56.889 796.444v-682.667h910.222v682.667zM113.778 739.555h796.444v-65.991l-398.222-211.058-398.222 211.058zM910.222 170.667h-796.444v438.613l398.222-211.058 398.222 211.058z" />
<glyph unicode="&#xe967;" glyph-name="email-send" d="M19.911 484.693l264.533-132.551v-335.644l201.387 201.387 299.804-240.64 192.284 954.027zM150.756 484.693l645.689 298.667-486.969-380.018zM341.333 356.124l440.32 344.747-319.716-426.667-120.604-120.036zM748.658 79.644l-227.556 181.476 359.538 478.436z" />
<glyph unicode="&#xe968;" glyph-name="embed" d="M56.889 910.222v-910.222h910.222v910.222zM910.222 56.889h-796.444v796.444h796.444zM372.053 253.724l-201.387 201.387 201.387 201.387 39.822-40.391-160.996-160.996 160.996-160.996zM612.124 294.115l160.996 160.996-160.996 160.996 39.822 40.391 201.387-201.387-201.387-201.387z" />
<glyph unicode="&#xe969;" glyph-name="end" d="M284.444 651.947l341.333-196.836-341.333-196.836v393.671zM227.556 750.933v-591.644l512 295.822-512 295.822zM796.444 739.555h-56.889v-568.889h56.889z" />
<glyph unicode="&#xe96a;" glyph-name="enter" d="M351.004 587.662l-40.391-40.391 92.729-92.16h-346.453v-56.889h346.453l-92.729-92.16 40.391-40.391 160.996 160.996-160.996 160.996zM682.667 910.222v-113.778h-284.444v-104.676l56.889-56.889v104.676h227.556v-625.778h-227.556v104.676l-56.889-56.889v-104.676h284.444v-113.778l227.556 113.778v739.556zM853.333 92.16l-113.778-56.889v782.791l113.778-56.889z" />
<glyph unicode="&#xe96b;" glyph-name="error" d="M725.333 824.889l213.902-369.778-213.902-369.778h-426.667l-213.902 369.778 213.902 369.778h426.667zM758.329 881.778h-492.658l-246.329-426.667 246.329-426.667h492.658l246.329 426.667-246.329 426.667zM568.889 284.444c0 31.419-25.47 56.889-56.889 56.889v0 0c-31.419 0-56.889-25.47-56.889-56.889v0 0c0-31.419 25.47-56.889 56.889-56.889v0 0c31.419 0 56.889 25.47 56.889 56.889v0zM568.889 682.667h-113.778v-284.444h113.778z" />
<glyph unicode="&#xe96c;" glyph-name="ethernet" d="M739.556 682.667v284.444h-455.111v-284.444h-56.889v-398.222l113.778-227.556h56.889v-113.778h227.556v113.778h56.889l113.778 227.556v398.222zM341.333 910.222h341.333v-227.556h-341.333zM597.333 625.778c0-47.128-38.205-85.333-85.333-85.333s-85.333 38.205-85.333 85.333v0zM568.889 0h-113.778v56.889h113.778zM704.284 227.555h-135.396v-56.889h106.951l-28.444-56.889h-270.791l-28.444 56.889h106.951v56.889h-135.396l-28.444 56.889h441.458zM739.556 341.333h-455.111v284.444h85.333c0-78.547 63.675-142.222 142.222-142.222s142.222 63.675 142.222 142.222v0h85.333z" />
</font>
</defs>
</svg>
